<?xml version="1.0" standalone="no"?>
<!DOCTYPE svg PUBLIC "-//W3C//DTD SVG 1.1//EN" "http://www.w3.org/Graphics/SVG/1.1/DTD/svg11.dtd" >
<svg xmlns="http://www.w3.org/2000/svg" xmlns:xlink="http://www.w3.org/1999/xlink" version="1.1">
<metadata>
Created by FontForge 20160407 at Wed Oct 26 07:12:12 2016
 By Jimmy Warting
Copyright (c) 2010 by Pablo Impallari. All rights reserved.
</metadata>
<defs>
<font id="Lobster1.3" horiz-adv-x="503" >
  <font-face 
    font-family="Lobster 1.3"
    font-weight="400"
    font-stretch="normal"
    units-per-em="1000"
    panose-1="2 0 5 6 0 0 0 2 0 3"
    ascent="750"
    descent="-250"
    x-height="500"
    cap-height="750"
    bbox="-223 -250 1266 1000"
    underline-thickness="50"
    underline-position="-100"
    unicode-range="U+0020-FB04"
  />
<missing-glyph horiz-adv-x="385" 
 />
    <glyph glyph-name="T_h" unicode="Th" horiz-adv-x="996" 
d="M99 460c0 -51 13 -59 14 -68c-69 0 -107 25 -107 97c0 133 105 260 352 260c46 0 168 -26 270 -26c49 0 93 6 121 24c-25 -45 -39 -73 -86 -310c44 34 95 63 143 63c54 0 115 -58 115 -125c0 -8 0 -16 -2 -24l-41 -191c-3 -12 -5 -23 -5 -32c0 -22 11 -37 50 -37
c40 0 92 56 132 88h34c-46 -46 -159 -179 -237 -179s-124 34 -124 109c0 16 2 32 6 51l38 180c2 9 3 18 3 26c0 36 -19 59 -46 59c-28 0 -49 -10 -74 -29c-19 -98 -43 -224 -74 -396h-144l137 638c-40 4 -86 11 -132 17l-141 -655h-144l143 664c-111 -5 -201 -47 -201 -204z
" />
    <glyph glyph-name="T_i" unicode="Ti" horiz-adv-x="750" 
d="M545 500h144l-72 -340c-2 -11 -4 -22 -4 -31c0 -22 10 -38 50 -38s92 56 132 88h34c-46 -46 -159 -179 -237 -179c-77 0 -125 34 -125 109c0 15 2 32 6 51zM157 0l144 671c-14 2 -27 3 -40 3c-92 0 -162 -49 -162 -214c0 -51 13 -59 14 -68c-69 0 -107 25 -107 97
c0 133 94 260 341 260c41 0 159 -16 257 -16c46 0 88 3 115 14c10 -31 14 -57 14 -78c0 -74 -49 -96 -83 -96c-46 0 -127 35 -212 64l-137 -637h-144z" />
    <glyph glyph-name="a_s" unicode="as" horiz-adv-x="853" 
d="M317 500h143l-71 -340c-3 -15 -5 -27 -5 -37c0 -21 8 -32 31 -32c11 0 26 14 42 37c0 83 36 129 76 132c36 65 59 154 76 230l145 30v-14c0 -165 67 -215 68 -332l-1 -21c28 25 53 51 65 65l26 -34c-28 -22 -68 -57 -108 -91c-26 -55 -83 -93 -176 -93
c-92 0 -146 21 -164 79c-36 -46 -72 -79 -101 -79c-70 0 -108 30 -120 78c-30 -42 -75 -84 -137 -84c-96 0 -124 68 -124 127c0 172 62 378 262 378c24 0 49 -10 67 -25zM245 160l56 265c-16 14 -35 18 -49 18c-75 0 -135 -159 -135 -295c0 -60 33 -71 58 -71
c23 0 45 23 65 51c0 10 2 21 5 32zM610 199c0 -38 -31 -64 -66 -64c-12 0 -23 3 -35 8c-1 -5 -2 -11 -2 -16c0 -43 47 -68 86 -68c34 0 83 42 83 119c0 62 -45 115 -47 240c-16 -49 -30 -113 -52 -163c24 -8 33 -26 33 -56z" />
    <glyph glyph-name="a_s_x" unicode="asx" horiz-adv-x="1194" 
d="M806 500h145l51 -205c50 42 100 100 102 149c-6 -1 -12 -2 -17 -2c-34 0 -47 25 -47 56c0 34 31 49 68 49c39 0 56 -45 56 -90c0 -65 -94 -159 -149 -211l23 -91c10 -41 17 -64 62 -64c40 0 92 56 132 88h34c-46 -46 -159 -179 -237 -179c-88 0 -113 24 -138 155l-3 10
c-24 -21 -54 -47 -84 -72c-26 -55 -83 -93 -176 -93c-92 0 -146 21 -164 79c-36 -46 -72 -79 -101 -79c-70 0 -108 30 -120 78c-30 -42 -75 -84 -137 -84c-96 0 -124 68 -124 127c0 172 62 378 262 378c24 0 49 -10 67 -25l6 26h143l-71 -340c-3 -15 -5 -27 -5 -37
c0 -21 8 -32 31 -32c11 0 26 14 42 37c0 83 36 129 76 132c36 65 59 154 76 230l145 30v-14c0 -165 67 -215 68 -332l-1 -21c22 20 43 41 57 55zM245 160l56 265c-16 14 -35 18 -49 18c-75 0 -135 -159 -135 -295c0 -60 33 -71 58 -71c23 0 45 23 65 51c0 10 2 21 5 32z
M610 199c0 -38 -31 -64 -66 -64c-12 0 -23 3 -35 8c-1 -5 -2 -11 -2 -16c0 -43 47 -68 86 -68c34 0 83 42 83 119c0 62 -45 115 -47 240c-16 -49 -30 -113 -52 -163c24 -8 33 -26 33 -56z" />
    <glyph glyph-name="a_s_z" unicode="asz" horiz-adv-x="1223" 
d="M317 500h143l-71 -340c-3 -15 -5 -27 -5 -37c0 -21 8 -32 31 -32c11 0 26 14 42 37c0 82 36 128 76 131c34 65 54 153 71 229l145 30v-14c0 -165 73 -213 73 -330c0 -93 -59 -174 -194 -174c-92 0 -146 21 -164 79c-36 -46 -72 -79 -101 -79c-70 0 -108 30 -120 78
c-30 -42 -75 -84 -137 -84c-96 0 -124 68 -124 127c0 172 62 378 262 378c24 0 49 -10 67 -25zM1086 62c-9 0 -18 11 -18 28c0 47 32 61 64 61c28 0 47 -26 47 -58c0 -51 -37 -93 -117 -93h-269l263 458c-23 1 -50 2 -73 2c-31 0 -55 -4 -55 -22c9 0 17 -12 17 -29
c0 -47 -31 -60 -63 -60c-28 0 -47 26 -47 58c0 51 37 93 117 93h269l-263 -458c23 -1 49 -2 73 -2c31 0 55 4 55 22zM245 160l56 265c-16 14 -35 18 -49 18c-75 0 -135 -159 -135 -295c0 -60 33 -71 58 -71c23 0 45 23 65 51c0 10 2 21 5 32zM610 199
c-1 -38 -31 -64 -66 -64c-12 0 -23 3 -35 8c-1 -5 -2 -11 -2 -16c0 -43 47 -68 86 -68c34 0 83 42 83 119c0 62 -45 115 -47 240c-16 -49 -30 -113 -52 -163c24 -8 33 -26 33 -56z" />
    <glyph glyph-name="a_z" unicode="az" horiz-adv-x="886" 
d="M460 500l-72 -340c-3 -12 -5 -23 -5 -34c0 -21 8 -37 36 -37c7 0 18 0 26 3c-28 -86 -70 -92 -104 -92c-58 0 -89 30 -99 76c-30 -41 -75 -82 -136 -82c-96 0 -124 68 -124 127c0 172 62 378 262 378c24 0 49 -10 67 -25l6 26h143zM738 62c-9 0 -18 11 -18 28
c0 47 32 61 64 61c28 0 47 -26 47 -58c0 -51 -37 -93 -117 -93h-269l263 458c-23 1 -50 2 -73 2c-31 0 -55 -4 -55 -22c9 0 17 -12 17 -29c0 -47 -31 -60 -63 -60c-28 0 -47 26 -47 58c0 51 37 93 117 93h269l-263 -458c23 -1 49 -2 73 -2c31 0 55 4 55 22zM245 160l56 265
c-16 14 -35 18 -49 18c-75 0 -135 -159 -135 -295c0 -60 33 -71 58 -71c23 0 45 23 65 51c0 8 2 21 5 32z" />
    <glyph glyph-name="aacute_s" unicode="&#xe1;s" horiz-adv-x="877" 
d="M317 500h143l-71 -340c-3 -15 -5 -27 -5 -37c0 -21 8 -32 31 -32c11 0 26 14 42 37c0 83 36 129 76 132c36 65 59 154 76 230l145 30v-14c0 -165 67 -215 68 -332l-1 -21c28 25 53 51 65 65l26 -34c-28 -22 -68 -57 -108 -91c-26 -55 -83 -93 -176 -93
c-92 0 -146 21 -164 79c-36 -46 -72 -79 -101 -79c-70 0 -108 30 -120 78c-30 -42 -75 -84 -137 -84c-96 0 -124 68 -124 127c0 172 62 378 262 378c24 0 49 -10 67 -25zM245 160l56 265c-16 14 -35 18 -49 18c-75 0 -135 -159 -135 -295c0 -60 33 -71 58 -71
c23 0 45 23 65 51c0 10 2 21 5 32zM610 199c0 -38 -31 -64 -66 -64c-12 0 -23 3 -35 8c-1 -5 -2 -11 -2 -16c0 -43 47 -68 86 -68c34 0 83 42 83 119c0 62 -45 115 -47 240c-16 -49 -30 -113 -52 -163c24 -8 33 -26 33 -56zM242 561l91 189h105l-121 -189h-75z" />
    <glyph glyph-name="aacute_s_x" unicode="&#xe1;sx" horiz-adv-x="1194" 
d="M806 500h145l51 -205c50 42 100 100 102 149c-6 -1 -12 -2 -17 -2c-34 0 -47 25 -47 56c0 34 31 49 68 49c39 0 56 -45 56 -90c0 -65 -94 -159 -149 -211l23 -91c10 -41 17 -64 62 -64c40 0 92 56 132 88h34c-46 -46 -159 -179 -237 -179c-88 0 -113 24 -138 155l-3 10
c-24 -21 -54 -47 -84 -72c-26 -55 -83 -93 -176 -93c-92 0 -146 21 -164 79c-36 -46 -72 -79 -101 -79c-70 0 -108 30 -120 78c-30 -42 -75 -84 -137 -84c-96 0 -124 68 -124 127c0 172 62 378 262 378c24 0 49 -10 67 -25l6 26h143l-71 -340c-3 -15 -5 -27 -5 -37
c0 -21 8 -32 31 -32c11 0 26 14 42 37c0 83 36 129 76 132c36 65 59 154 76 230l145 30v-14c0 -165 67 -215 68 -332l-1 -21c22 20 43 41 57 55zM245 160l56 265c-16 14 -35 18 -49 18c-75 0 -135 -159 -135 -295c0 -60 33 -71 58 -71c23 0 45 23 65 51c0 10 2 21 5 32z
M610 199c0 -38 -31 -64 -66 -64c-12 0 -23 3 -35 8c-1 -5 -2 -11 -2 -16c0 -43 47 -68 86 -68c34 0 83 42 83 119c0 62 -45 115 -47 240c-16 -49 -30 -113 -52 -163c24 -8 33 -26 33 -56zM242 561l91 189h105l-121 -189h-75z" />
    <glyph glyph-name="aacute_s_z" unicode="&#xe1;sz" horiz-adv-x="1199" 
d="M317 500h143l-71 -340c-3 -15 -5 -27 -5 -37c0 -21 8 -32 31 -32c11 0 26 14 42 37c0 82 36 128 76 131c34 65 54 153 71 229l145 30v-14c0 -165 73 -213 73 -330c0 -93 -59 -174 -194 -174c-92 0 -146 21 -164 79c-36 -46 -72 -79 -101 -79c-70 0 -108 30 -120 78
c-30 -42 -75 -84 -137 -84c-96 0 -124 68 -124 127c0 172 62 378 262 378c24 0 49 -10 67 -25zM1086 62c-9 0 -18 11 -18 28c0 47 32 61 64 61c28 0 47 -26 47 -58c0 -51 -37 -93 -117 -93h-269l263 458c-23 1 -50 2 -73 2c-31 0 -55 -4 -55 -22c9 0 17 -12 17 -29
c0 -47 -31 -60 -63 -60c-28 0 -47 26 -47 58c0 51 37 93 117 93h269l-263 -458c23 -1 49 -2 73 -2c31 0 55 4 55 22zM245 160l56 265c-16 14 -35 18 -49 18c-75 0 -135 -159 -135 -295c0 -60 33 -71 58 -71c23 0 45 23 65 51c0 10 2 21 5 32zM610 199
c-1 -38 -31 -64 -66 -64c-12 0 -23 3 -35 8c-1 -5 -2 -11 -2 -16c0 -43 47 -68 86 -68c34 0 83 42 83 119c0 62 -45 115 -47 240c-16 -49 -30 -113 -52 -163c24 -8 33 -26 33 -56zM242 561l91 189h105l-121 -189h-75z" />
    <glyph glyph-name="b_s" unicode="bs" horiz-adv-x="795" 
d="M99 680l148 20l-48 -227c23 17 53 29 86 29c96 0 127 -68 127 -127c0 -20 -2 -41 -4 -62c45 35 93 87 140 170l135 30v-18c0 -162 64 -205 64 -321c0 -11 0 -21 -2 -32c31 27 64 59 85 84l26 -42c-33 -37 -86 -76 -134 -113c-27 -43 -76 -71 -156 -71
c-97 0 -156 29 -156 111c0 114 78 148 105 148c38 0 52 -20 52 -60c0 -38 -34 -71 -71 -71c-12 0 -24 3 -35 12c-2 -7 -3 -14 -3 -20c0 -38 29 -61 78 -61c34 0 77 42 77 118c0 62 -38 116 -40 241c-40 -56 -113 -126 -178 -173c-34 -127 -115 -248 -248 -248
c-99 0 -165 28 -165 114c0 14 2 31 6 49zM300 368c0 60 -32 74 -57 74c-10 0 -45 -7 -54 -14l-57 -268c-5 -24 -8 -42 -8 -55c0 -30 14 -37 44 -37c50 0 89 87 111 170c-9 8 -13 20 -13 32c0 24 12 49 31 63c2 14 3 26 3 35z" />
    <glyph glyph-name="b_s_x" unicode="bsx" horiz-adv-x="1122" 
d="M99 680l148 20l-48 -227c23 17 53 29 86 29c96 0 127 -68 127 -127c0 -21 -2 -44 -5 -66c47 35 97 88 146 174l135 30c0 -177 77 -219 77 -339c0 -12 -1 -24 -3 -35c27 23 56 51 75 71l-71 290h145l51 -205c50 42 100 100 102 149c-6 -1 -12 -2 -17 -2
c-34 0 -47 25 -47 56c0 34 31 49 68 49c39 0 56 -45 56 -90c0 -65 -94 -159 -149 -211l23 -91c10 -41 17 -64 62 -64c40 0 92 56 132 88h34c-46 -46 -159 -179 -237 -179c-88 0 -113 24 -138 155l-3 13c-34 -29 -76 -66 -113 -96c-30 -43 -84 -72 -164 -72
c-96 0 -160 44 -160 120c0 87 56 141 88 141c52 0 73 -16 73 -62c0 -38 -34 -71 -71 -71c-12 0 -24 3 -35 12c-1 -5 -1 -10 -1 -15c0 -38 25 -66 76 -66c34 0 78 41 78 118c0 62 -39 116 -41 241c-42 -59 -116 -134 -186 -181c-34 -124 -115 -240 -245 -240
c-99 0 -165 28 -165 114c0 14 2 31 6 49zM300 368c0 60 -32 74 -57 74c-10 0 -45 -7 -54 -14l-57 -268c-5 -24 -8 -42 -8 -55c0 -30 14 -37 44 -37c82 0 132 228 132 300z" />
    <glyph glyph-name="b_s_z" unicode="bsz" horiz-adv-x="1180" 
d="M99 680l148 20l-48 -227c23 17 53 29 86 29c96 0 127 -68 127 -127c0 -22 -2 -46 -5 -70c48 35 100 89 150 178l135 30c0 -177 64 -219 64 -339c0 -93 -46 -174 -181 -174c-96 0 -160 44 -160 120c0 87 56 141 88 141c52 0 73 -16 73 -62c0 -38 -34 -71 -71 -71
c-12 0 -24 3 -35 12c-1 -5 -1 -10 -1 -15c0 -38 25 -66 76 -66c34 0 77 41 77 118c0 62 -38 116 -40 241c-43 -60 -120 -138 -191 -184c-35 -123 -116 -237 -244 -237c-99 0 -165 28 -165 114c0 14 2 31 6 49zM1028 62c-9 0 -18 11 -18 28c0 47 32 61 64 61
c28 0 47 -26 47 -58c0 -51 -37 -93 -117 -93h-269l263 458c-23 1 -50 2 -73 2c-31 0 -55 -4 -55 -22c9 0 17 -12 17 -29c0 -47 -31 -60 -63 -60c-28 0 -47 26 -47 58c0 51 37 93 117 93h269l-263 -458c23 -1 49 -2 73 -2c31 0 55 4 55 22zM300 368c0 60 -32 74 -57 74
c-10 0 -45 -7 -54 -14l-57 -268c-5 -24 -8 -42 -8 -55c0 -30 14 -37 44 -37c82 0 132 228 132 300z" />
    <glyph glyph-name="c_x" unicode="cx" horiz-adv-x="725" 
d="M370 500h145l44 -207c51 49 88 99 93 137c-6 -1 -12 -2 -17 -2c-35 0 -47 25 -47 56c0 34 32 49 68 49c34 0 58 -34 58 -72c0 -45 -59 -132 -144 -219l19 -87c9 -41 14 -64 59 -64c40 0 92 56 132 88h34c-46 -46 -159 -179 -237 -179c-85 0 -103 16 -129 134
c-100 -77 -211 -135 -304 -135c-79 0 -157 53 -157 165c0 146 63 339 257 339c54 0 110 -14 110 -69c0 -11 -1 -20 -5 -33h-57c3 11 5 20 5 28c0 24 -15 34 -37 34c-84 0 -138 -163 -138 -271c0 -47 14 -107 78 -107c53 0 147 46 235 107z" />
    <glyph glyph-name="c_z" unicode="cz" horiz-adv-x="765" 
d="M134 0c-83 0 -147 46 -147 164c0 146 63 339 257 339c54 0 102 -14 102 -69c0 -11 -1 -20 -5 -33h-57c3 11 5 20 5 28c0 24 -7 34 -29 34c-84 0 -138 -163 -138 -271c0 -49 11 -107 72 -107c54 0 101 25 140 59c0 -87 -74 -144 -200 -144zM617 62c-9 0 -18 11 -18 28
c0 47 32 61 64 61c28 0 47 -26 47 -58c0 -51 -37 -93 -117 -93h-269l273 458c-23 0 -47 2 -66 2c-27 0 -46 -4 -46 -22c9 0 17 -12 17 -29c0 -47 -31 -60 -63 -60c-28 0 -47 26 -47 58c0 51 37 93 117 93h253l-273 -458c23 -1 49 -2 73 -2c31 0 55 4 55 22z" />
    <glyph glyph-name="e_s" unicode="es" horiz-adv-x="708" 
d="M117 158c0 -66 43 -86 82 -86c38 0 72 27 101 73c4 71 39 112 76 115c36 65 59 154 76 230l145 30v-14c0 -165 68 -215 68 -332c0 -7 0 -14 -1 -21c28 25 53 51 65 65l26 -34c-28 -22 -68 -57 -108 -91c-26 -55 -83 -93 -176 -93c-96 0 -151 23 -167 87
c-41 -52 -93 -87 -174 -87c-96 0 -148 73 -148 159c0 127 54 350 236 350c82 0 128 -34 128 -104c0 -122 -131 -192 -226 -204c-2 -16 -3 -31 -3 -43zM453 199c0 -38 -31 -64 -66 -64c-12 0 -24 3 -36 9c0 -59 32 -85 85 -85c34 0 83 42 83 119c0 62 -45 115 -47 240
c-16 -49 -30 -113 -52 -163c24 -8 33 -26 33 -56zM286 400c0 21 -5 56 -35 56c-56 0 -102 -113 -123 -207c92 1 157 80 158 151z" />
    <glyph glyph-name="e_s_x" unicode="esx" horiz-adv-x="1063" 
d="M666 500h145l51 -205c50 42 100 100 102 149c-6 -1 -12 -2 -17 -2c-34 0 -47 25 -47 56c0 34 31 49 68 49c39 0 56 -40 56 -85c0 -66 -94 -163 -149 -216l23 -91c10 -41 17 -64 62 -64c40 0 92 56 132 88h34c-46 -46 -159 -179 -237 -179c-88 0 -113 24 -138 155l-5 19
c-26 -22 -60 -52 -95 -81c-26 -55 -83 -93 -176 -93c-98 0 -153 24 -167 91c-42 -54 -95 -91 -178 -91c-96 0 -148 73 -148 159c0 127 54 350 236 350c82 0 128 -34 128 -104c0 -122 -131 -192 -226 -204c-2 -16 -3 -31 -3 -43c0 -66 43 -86 82 -86c40 0 75 29 106 80
c6 67 39 105 75 108c36 65 59 154 76 230l145 30v-14c0 -165 68 -215 68 -332c0 -7 0 -14 -1 -21c28 25 53 51 65 65l3 -5zM457 199c0 -38 -31 -64 -66 -64c-12 0 -24 3 -36 9c0 -59 32 -85 85 -85c34 0 83 42 83 119c0 62 -45 115 -47 240c-16 -49 -30 -113 -52 -163
c24 -8 33 -26 33 -56zM286 400c0 21 -5 56 -35 56c-56 0 -102 -113 -123 -207c92 1 157 80 158 151z" />
    <glyph glyph-name="e_s_z" unicode="esz" horiz-adv-x="1056" 
d="M117 158c0 -66 43 -86 82 -86c36 0 69 25 98 68c3 74 37 116 76 119c34 65 54 153 71 229l145 30v-14c0 -165 73 -213 73 -330c0 -93 -59 -174 -194 -174c-95 0 -150 22 -166 84c-41 -50 -92 -84 -172 -84c-96 0 -148 73 -148 159c0 127 54 350 236 350
c82 0 128 -34 128 -104c0 -122 -131 -192 -226 -204c-2 -16 -3 -31 -3 -43zM919 62c-9 0 -18 11 -18 28c0 47 32 61 64 61c28 0 47 -26 47 -58c0 -51 -37 -93 -117 -93h-269l263 458c-23 1 -50 2 -73 2c-31 0 -55 -4 -55 -22c9 0 17 -12 17 -29c0 -47 -31 -60 -63 -60
c-28 0 -47 26 -47 58c0 51 37 93 117 93h269l-263 -458c23 -1 49 -2 73 -2c31 0 55 4 55 22zM450 199c-1 -38 -31 -64 -66 -64c-12 0 -24 3 -36 9c0 -59 32 -85 85 -85c34 0 83 42 83 119c0 62 -45 115 -47 240c-16 -49 -30 -113 -52 -163c24 -8 33 -26 33 -56zM286 400
c0 21 -5 56 -35 56c-56 0 -102 -113 -123 -207c92 1 157 80 158 151z" />
    <glyph glyph-name="e_x" unicode="ex" horiz-adv-x="722" 
d="M380 500h145l34 -202c53 59 90 115 96 147c-6 -1 -12 -2 -17 -2c-34 0 -47 25 -47 56c0 34 31 49 68 49c31 0 60 -24 60 -70c0 -47 -45 -134 -150 -241l14 -82c7 -41 14 -64 59 -64c40 0 92 56 132 88h34c-46 -46 -159 -179 -237 -179c-81 0 -107 21 -127 127
c-97 -72 -207 -126 -309 -126c-96 0 -148 72 -148 158c0 127 54 350 236 350c82 0 128 -34 128 -104c0 -122 -131 -192 -226 -204c-2 -16 -3 -31 -3 -43c0 -66 43 -85 82 -85c67 0 152 47 230 109zM291 400c0 21 -5 56 -35 56c-56 0 -102 -113 -123 -207
c92 1 157 80 158 151z" />
    <glyph glyph-name="e_z" unicode="ez" horiz-adv-x="769" 
d="M114 0c-96 0 -148 73 -148 159c0 127 54 350 236 350c82 0 128 -34 128 -104c0 -122 -131 -192 -226 -204c-2 -16 -3 -31 -3 -43c0 -66 33 -86 72 -86c47 0 87 27 128 64c0 -108 -87 -136 -187 -136zM617 62c-9 0 -18 11 -18 28c0 47 32 61 64 61c28 0 47 -26 47 -58
c0 -51 -37 -93 -117 -93h-269l263 458c-23 0 -47 2 -66 2c-27 0 -46 -4 -46 -22c9 0 17 -12 17 -29c0 -47 -31 -60 -63 -60c-28 0 -47 26 -47 58c0 51 37 93 117 93h253l-263 -458c23 -1 49 -2 73 -2c31 0 55 4 55 22zM270 400c0 21 -5 56 -35 56c-56 0 -102 -113 -123 -207
c92 1 157 80 158 151z" />
    <glyph glyph-name="eacute_s" unicode="&#xe9;s" horiz-adv-x="713" 
d="M117 158c0 -66 43 -86 82 -86c38 0 72 27 101 73c4 71 39 112 76 115c36 65 59 154 76 230l145 30v-14c0 -165 68 -215 68 -332c0 -7 0 -14 -1 -21c28 25 53 51 65 65l26 -34c-28 -22 -68 -57 -108 -91c-26 -55 -83 -93 -176 -93c-96 0 -151 23 -167 87
c-41 -52 -93 -87 -174 -87c-96 0 -148 73 -148 159c0 127 54 350 236 350c82 0 128 -34 128 -104c0 -122 -131 -192 -226 -204c-2 -16 -3 -31 -3 -43zM453 199c0 -38 -31 -64 -66 -64c-12 0 -24 3 -36 9c0 -59 32 -85 85 -85c34 0 83 42 83 119c0 62 -45 115 -47 240
c-16 -49 -30 -113 -52 -163c24 -8 33 -26 33 -56zM286 400c0 21 -5 56 -35 56c-56 0 -102 -113 -123 -207c92 1 157 80 158 151zM242 561l91 189h105l-121 -189h-75z" />
    <glyph glyph-name="eacute_s_x" unicode="&#xe9;sx" horiz-adv-x="1049" 
d="M657 500h145l51 -205c50 42 100 100 102 149c-6 -1 -12 -2 -17 -2c-34 0 -47 25 -47 56c0 34 31 49 68 49c39 0 56 -45 56 -90c0 -65 -94 -159 -149 -211l23 -91c10 -41 17 -64 62 -64c40 0 92 56 132 88h34c-46 -46 -159 -179 -237 -179c-88 0 -113 24 -142 172
c-26 -22 -59 -51 -93 -79c-26 -55 -83 -93 -176 -93c-95 0 -150 22 -166 85c-41 -51 -93 -85 -173 -85c-96 0 -148 73 -148 159c0 127 54 350 236 350c82 0 128 -34 128 -104c0 -122 -131 -192 -226 -204c-2 -16 -3 -31 -3 -43c0 -66 43 -86 82 -86c37 0 70 25 99 70
c3 73 38 115 76 118c36 65 59 154 76 230l145 30v-14c0 -165 68 -215 68 -332c0 -7 0 -14 -1 -21c27 25 53 51 64 64zM451 199c0 -38 -31 -64 -66 -64c-12 0 -24 3 -36 9c0 -59 32 -85 85 -85c34 0 83 42 83 119c0 62 -45 115 -47 240c-16 -49 -30 -113 -52 -163
c24 -8 33 -26 33 -56zM286 400c0 21 -5 56 -35 56c-56 0 -102 -113 -123 -207c92 1 157 80 158 151zM242 561l91 189h105l-121 -189h-75z" />
    <glyph glyph-name="eacute_s_z" unicode="&#xe9;sz" horiz-adv-x="1053" 
d="M117 158c0 -66 43 -86 82 -86c35 0 67 23 95 64c1 76 37 120 76 123c34 65 54 153 71 229l145 30v-14c0 -165 73 -213 73 -330c0 -93 -59 -174 -194 -174c-93 0 -148 21 -165 82c-41 -49 -92 -82 -170 -82c-96 0 -148 73 -148 159c0 127 54 350 236 350
c82 0 128 -34 128 -104c0 -122 -131 -192 -226 -204c-2 -16 -3 -31 -3 -43zM919 62c-9 0 -18 11 -18 28c0 47 32 61 64 61c28 0 47 -26 47 -58c0 -51 -37 -93 -117 -93h-269l263 458c-23 1 -50 2 -73 2c-31 0 -55 -4 -55 -22c9 0 17 -12 17 -29c0 -47 -31 -60 -63 -60
c-28 0 -47 26 -47 58c0 51 37 93 117 93h269l-263 -458c23 -1 49 -2 73 -2c31 0 55 4 55 22zM447 199c-1 -38 -31 -64 -66 -64c-12 0 -24 3 -36 9c0 -59 32 -85 85 -85c34 0 83 42 83 119c0 62 -45 115 -47 240c-16 -49 -30 -113 -52 -163c24 -8 33 -26 33 -56zM286 400
c0 21 -5 56 -35 56c-56 0 -102 -113 -123 -207c92 1 157 80 158 151zM242 561l91 189h105l-121 -189h-75z" />
    <glyph glyph-name="eacute_x" unicode="&#xe9;x" horiz-adv-x="722" 
d="M372 500h145l41 -194c49 56 83 109 88 139c-6 -1 -12 -2 -17 -2c-34 0 -47 25 -47 56c0 34 31 49 68 49c31 0 60 -24 60 -70s-41 -128 -139 -232l20 -91c9 -41 14 -64 59 -64c40 0 92 56 132 88h34c-46 -46 -159 -179 -237 -179c-84 0 -103 21 -128 135
c-97 -76 -210 -134 -316 -134c-96 0 -148 72 -148 158c0 127 54 350 236 350c82 0 128 -34 128 -104c0 -122 -131 -192 -226 -204c-2 -16 -3 -31 -3 -43c0 -66 43 -85 82 -85c69 0 157 50 235 116zM291 400c0 21 -5 56 -35 56c-56 0 -102 -113 -123 -207
c92 1 157 80 158 151zM242 561l91 189h105l-121 -189h-75z" />
    <glyph glyph-name="f_f" unicode="ff" horiz-adv-x="563" 
d="M-57 -250c-61 0 -118 43 -118 108c0 92 78 121 173 150l120 571c30 143 116 170 182 170c45 0 88 -24 107 -63c40 51 93 63 137 63c61 0 118 -43 118 -108c0 -16 -1 -29 -3 -41h-47c1 10 2 18 2 27c0 23 -18 34 -38 34c-22 0 -53 -12 -68 -79l-18 -82h100l-9 -40h-99
l-113 -540c-30 -143 -116 -170 -182 -170c-57 0 -92 25 -108 63c-39 -51 -92 -63 -136 -63zM238 460l-89 -423l103 18l85 405h-99zM106 -141c9 -16 32 -20 58 -20c19 0 46 19 59 78l24 114l-103 -19c-24 -115 -31 -136 -38 -153zM370 627c0 23 -18 34 -38 34
c-22 0 -53 -12 -68 -79l-18 -82h99l17 79c4 17 8 32 8 48zM-114 -128c0 -14 18 -33 40 -33c20 0 47 19 59 78l12 58c-63 -21 -111 -49 -111 -103z" />
    <glyph glyph-name="f_f_i" unicode="ffi" horiz-adv-x="733" 
d="M457 500h240l-71 -340c-2 -11 -5 -22 -5 -32c0 -22 11 -37 50 -37c40 0 92 56 132 88h34c-46 -46 -159 -179 -237 -179c-77 0 -124 34 -124 109c0 15 2 32 6 51l62 300h-95l-112 -540c-30 -143 -116 -170 -182 -170c-51 0 -90 25 -108 66c-39 -53 -93 -66 -138 -66
c-61 0 -118 43 -118 108c0 92 78 121 173 150l120 571c30 143 116 170 182 170c47 0 92 -26 110 -68c46 55 111 68 157 68c93 0 159 -8 176 -108c1 -5 1 -9 1 -14c0 -44 -39 -74 -71 -74c-41 0 -68 11 -68 54c0 26 9 51 31 51l8 -1c-1 26 -11 34 -32 34
c-17 0 -78 -3 -102 -109zM206 460l-90 -424l103 18l86 406h-99zM75 -134v-4c0 -14 16 -29 57 -29c17 0 47 25 59 84l23 113l-104 -22l-19 -88c-5 -20 -11 -38 -16 -54zM334 600c1 10 2 18 2 27c0 23 -18 34 -38 34c-22 0 -55 -12 -68 -79l-16 -82h99c18 86 20 93 21 100z
M-148 -128c0 -14 18 -33 40 -33c20 0 47 19 59 78l12 58c-63 -21 -111 -49 -111 -103z" />
    <glyph glyph-name="f_f_l" unicode="ffl" horiz-adv-x="765" 
d="M508 750c90 0 158 -24 251 -72l-109 -518c-3 -11 -5 -22 -5 -32c0 -22 11 -37 50 -37c40 0 92 56 132 88h34c-46 -46 -159 -179 -237 -179c-77 0 -124 34 -124 109c0 15 2 32 6 51l108 510c-26 11 -51 16 -64 16c-22 0 -52 -12 -68 -79l-25 -107h96l-8 -40h-96l-111 -540
c-30 -143 -118 -170 -182 -170c-42 0 -91 20 -118 54c-38 -43 -87 -54 -128 -54c-61 0 -118 43 -118 108c0 92 78 121 173 150l120 571c30 143 116 170 182 170c45 0 89 -24 108 -64c38 52 89 65 133 65zM206 460l-90 -423l105 17l85 406h-100zM123 -165c21 0 56 23 69 82
l24 113l-106 -22l-18 -88c-6 -27 -14 -51 -23 -70c13 -12 38 -15 54 -15zM314 500l17 79c3 14 4 26 4 36c0 38 -20 46 -36 46c-22 0 -54 -12 -68 -79l-17 -82h100zM-147 -128c0 -14 18 -33 40 -33c20 0 47 19 59 78l12 58c-63 -21 -111 -49 -111 -103z" />
    <glyph glyph-name="f_f_t" unicode="fft" horiz-adv-x="765" 
d="M508 750c90 0 158 -24 251 -72l-38 -178h32l-8 -40h-32l-63 -300c-3 -11 -5 -22 -5 -32c0 -22 11 -37 50 -37c40 0 92 56 132 88h34c-46 -46 -159 -179 -237 -179c-77 0 -124 34 -124 109c0 15 2 32 6 51l63 300h-118l-113 -540c-30 -143 -116 -170 -182 -170
c-42 0 -91 20 -118 54c-38 -43 -87 -54 -128 -54c-61 0 -118 43 -118 108c0 92 78 121 173 150l120 571c30 143 116 170 182 170c45 0 89 -24 108 -64c38 51 89 65 133 65zM206 460l-90 -424c21 3 85 15 105 18l84 406h-99zM578 500l36 170c-26 11 -51 16 -64 16
c-22 0 -54 -12 -68 -79l-23 -107h119zM123 -165c21 0 56 23 69 82l24 113l-106 -22l-18 -88c-6 -27 -14 -51 -23 -70c13 -12 38 -15 54 -15zM313 500l22 100c1 10 2 19 2 27c0 23 -18 34 -38 34c-22 0 -54 -12 -68 -79l-17 -82h99zM-147 -128c0 -14 18 -33 40 -33
c20 0 47 19 59 78l12 58c-63 -21 -111 -49 -111 -103z" />
    <glyph glyph-name="f_i" unicode="fi" horiz-adv-x="561" 
d="M444 553c-41 0 -68 11 -68 54c0 26 12 51 30 51c2 0 6 0 9 -1c-1 26 -26 34 -54 34c-63 0 -111 -53 -123 -109l-17 -82h101l-8 -40h-101l-114 -540c-30 -143 -116 -170 -182 -170c-61 0 -118 43 -118 108c0 92 78 121 173 150l120 571c30 143 154 170 220 170
c90 0 203 -14 203 -122c0 -45 -39 -74 -71 -74zM-146 -128c0 -14 18 -33 40 -33c20 0 47 19 59 78l12 58c-63 -21 -111 -49 -111 -103zM356 500h145l-72 -340c-3 -11 -5 -22 -5 -32c0 -22 11 -37 50 -37c40 0 92 56 132 88h34c-46 -46 -159 -179 -237 -179s-124 34 -124 109
c0 16 2 32 6 51z" />
    <glyph glyph-name="f_i_x" unicode="fix" horiz-adv-x="887" 
d="M444 553c-41 0 -68 11 -68 54c0 26 12 51 30 51c2 0 6 0 9 -1c-1 26 -26 34 -54 34c-63 0 -111 -53 -123 -109l-17 -82h101l-8 -40h-101l-114 -540c-30 -143 -116 -170 -182 -170c-61 0 -118 43 -118 108c0 92 78 121 173 150l120 571c30 143 154 170 220 170
c90 0 203 -14 203 -122c0 -45 -39 -74 -71 -74zM546 500h145l37 -218c42 44 80 102 82 147c-6 -1 -12 -2 -17 -2c-34 0 -47 25 -47 56c0 34 31 49 68 49c39 0 56 -45 56 -90c0 -62 -79 -157 -133 -214l13 -73c7 -41 14 -64 59 -64c40 0 92 56 132 88h34
c-46 -46 -159 -179 -237 -179c-79 0 -100 19 -124 117c-63 -55 -156 -117 -211 -117c-78 0 -124 34 -124 109c0 16 2 32 6 51l71 340h145l-72 -340c-3 -11 -5 -22 -5 -32c0 -22 11 -37 50 -37c40 0 90 44 129 78zM-146 -128c0 -14 18 -33 40 -33c20 0 47 19 59 78l12 58
c-63 -21 -111 -49 -111 -103z" />
    <glyph glyph-name="f_i_z" unicode="fiz" horiz-adv-x="934" 
d="M-146 -128c0 -14 18 -33 40 -33c20 0 47 19 59 78l12 58c-63 -21 -111 -49 -111 -103zM499 500l-72 -340c-3 -12 -5 -23 -5 -34c0 -21 8 -37 36 -37c7 0 18 0 26 3c-28 -86 -70 -92 -104 -92c-71 0 -102 47 -102 110c0 16 2 33 6 50l72 340h143zM444 553
c-41 0 -68 11 -68 54c0 26 12 51 30 51c2 0 6 0 9 -1c-1 26 -26 34 -54 34c-63 0 -111 -53 -123 -109l-17 -82h101l-8 -40h-101l-114 -540c-30 -143 -116 -170 -182 -170c-61 0 -118 43 -118 108c0 92 78 121 173 150l120 571c30 143 154 170 220 170c90 0 203 -14 203 -122
c0 -45 -39 -74 -71 -74zM793 62c-9 0 -18 11 -18 28c0 47 32 61 64 61c28 0 47 -26 47 -58c0 -51 -37 -93 -117 -93h-269l263 458c-23 1 -50 2 -73 2c-31 0 -55 -4 -55 -22c9 0 17 -12 17 -29c0 -47 -31 -60 -63 -60c-28 0 -47 26 -47 58c0 51 37 93 117 93h269l-263 -458
c23 -1 49 -2 73 -2c31 0 55 4 55 22z" />
    <glyph glyph-name="f_l" unicode="fl" horiz-adv-x="579" 
d="M-138 -128c0 -14 18 -33 40 -33c20 0 47 19 59 78l12 58c-63 -21 -111 -49 -111 -103zM547 680l-110 -520c-3 -11 -5 -22 -5 -32c0 -22 11 -37 50 -37c40 0 92 56 132 88h34c-46 -46 -159 -179 -237 -179c-77 0 -124 34 -124 109c0 15 2 32 6 51l108 510
c-26 11 -69 16 -82 16c-22 0 -54 -12 -68 -79l-22 -107h93l-8 -40h-93l-114 -540c-30 -143 -116 -170 -182 -170c-61 0 -118 43 -118 108c0 92 78 121 173 150l120 571c30 143 117 170 182 170c90 0 175 -33 265 -69z" />
    <glyph glyph-name="f_l_x" unicode="flx" horiz-adv-x="902" 
d="M549 500h145l46 -216c44 44 86 102 88 148c-6 -1 -12 -2 -17 -2c-34 0 -47 25 -47 56c0 34 31 49 68 49c39 0 56 -42 56 -87c0 -62 -82 -158 -137 -215l17 -78c9 -41 14 -64 59 -64c40 0 92 56 132 88h34c-46 -46 -159 -179 -237 -179c-81 0 -101 20 -126 126
c-65 -56 -161 -126 -219 -126c-77 0 -124 34 -124 109c0 15 2 32 6 51l108 510c-26 11 -69 16 -82 16c-22 0 -54 -12 -68 -79l-22 -107h93l-8 -40h-93l-114 -540c-30 -143 -116 -170 -182 -170c-61 0 -118 43 -118 108c0 92 78 121 173 150l120 571c30 143 117 170 182 170
c90 0 175 -33 265 -69l-110 -520c-3 -11 -5 -22 -5 -32c0 -22 11 -37 50 -37c38 0 97 54 137 87zM-138 -128c0 -14 18 -33 40 -33c20 0 47 19 59 78l12 58c-63 -21 -111 -49 -111 -103z" />
    <glyph glyph-name="f_l_z" unicode="flz" horiz-adv-x="940" 
d="M-138 -128c0 -14 18 -33 40 -33c20 0 47 19 59 78l12 58c-63 -21 -111 -49 -111 -103zM547 680l-111 -520c-3 -12 -5 -23 -5 -34c0 -21 8 -37 36 -37c7 0 18 0 26 3c-28 -86 -70 -92 -104 -92c-71 0 -102 47 -102 110c0 16 2 33 6 50l108 510c-26 11 -69 16 -82 16
c-22 0 -54 -12 -68 -79l-22 -107h93l-8 -40h-93l-114 -540c-30 -143 -116 -170 -182 -170c-61 0 -118 43 -118 108c0 92 78 121 173 150l120 571c30 143 117 170 182 170c90 0 175 -33 265 -69zM803 62c-9 0 -18 11 -18 28c0 47 32 61 64 61c28 0 47 -26 47 -58
c0 -51 -37 -93 -117 -93h-269l263 458c-23 1 -50 2 -73 2c-31 0 -55 -4 -55 -22c9 0 17 -12 17 -29c0 -47 -31 -60 -63 -60c-28 0 -47 26 -47 58c0 51 37 93 117 93h269l-263 -458c23 -1 49 -2 73 -2c31 0 55 4 55 22z" />
    <glyph glyph-name="f_t" unicode="ft" horiz-adv-x="579" 
d="M487 460l-64 -300c-3 -11 -5 -22 -5 -32c0 -22 11 -37 50 -37c40 0 92 56 132 88h34c-46 -46 -159 -179 -237 -179c-77 0 -124 34 -124 109c0 15 2 32 6 51l64 300h-122l-114 -540c-30 -143 -116 -170 -182 -170c-61 0 -118 43 -118 108c0 92 78 121 173 150l120 571
c30 143 117 170 182 170c90 0 161 -33 251 -69l-38 -180h84l-9 -40h-83zM351 500l36 170c-26 11 -55 16 -68 16c-22 0 -54 -12 -68 -79l-22 -107h122zM-138 -128c0 -14 18 -33 40 -33c20 0 47 19 59 78l12 58c-63 -21 -111 -49 -111 -103z" />
    <glyph glyph-name="f_u" unicode="fu" horiz-adv-x="804" 
d="M219 500h275l-73 -340c-3 -11 -5 -22 -5 -32c0 -22 11 -37 50 -37c21 0 47 16 72 36c0 10 2 21 5 33l72 340h145l-73 -340c-3 -11 -5 -22 -5 -32c0 -22 11 -37 50 -37c40 0 92 56 132 88h34c-46 -46 -159 -179 -237 -179c-69 0 -113 26 -123 84
c-47 -44 -100 -84 -143 -84c-78 0 -124 34 -124 109c0 16 2 32 6 51l59 288h-127l-111 -528c-30 -143 -116 -170 -182 -170c-61 0 -118 43 -118 108c0 92 78 121 173 150l120 571c30 143 116 170 182 170c61 0 118 -43 118 -108c0 -16 -1 -29 -3 -41h-47c1 10 2 18 2 27
c0 23 -18 34 -38 34c-22 0 -53 -12 -68 -79zM-147 -128c0 -14 18 -33 40 -33c20 0 47 19 59 78l12 58c-63 -21 -111 -49 -111 -103z" />
    <glyph glyph-name="f_x" unicode="fx" horiz-adv-x="645" 
d="M384 600h-47c1 10 2 19 2 27c0 23 -18 34 -38 34c-22 0 -53 -12 -68 -79l-23 -105h225l47 -206c45 44 88 104 90 150c-6 -1 -12 -2 -17 -2c-35 0 -47 25 -47 56c0 34 32 49 68 49c37 0 56 -41 56 -84c0 -64 -82 -161 -138 -219l15 -66c9 -41 14 -64 59 -64
c40 0 92 56 132 88h34c-46 -46 -159 -179 -237 -179c-87 0 -102 24 -131 150c-48 -34 -92 -78 -101 -118c5 1 9 1 13 1c34 0 41 -26 41 -49c0 -39 -23 -55 -56 -55c-45 0 -70 28 -70 71c0 68 90 150 161 203l-52 222h-102l-106 -505c-30 -143 -116 -170 -182 -170
c-61 0 -118 43 -118 108c0 92 78 121 173 150l120 571c30 143 116 170 182 170c61 0 118 -43 118 -108c0 -16 -1 -29 -3 -41zM-151 -128c0 -14 18 -33 40 -33c20 0 47 19 59 78l12 58c-63 -21 -111 -49 -111 -103z" />
    <glyph glyph-name="f_z" unicode="fz" horiz-adv-x="657" 
d="M-147 -128c0 -14 18 -33 40 -33c20 0 47 19 59 78l12 58c-63 -21 -111 -49 -111 -103zM518 62c-9 0 -18 11 -18 28c0 48 32 61 64 61c28 0 47 -26 47 -58c0 -51 -37 -93 -117 -93h-269l257 448c-2 3 -25 6 -51 6c-34 0 -71 -4 -71 -16c10 0 17 -15 17 -36
c0 -41 -30 -53 -63 -53c-28 0 -47 26 -47 58c0 14 3 28 9 41h-66l-112 -528c-30 -143 -116 -170 -182 -170c-61 0 -118 43 -118 108c0 92 78 121 173 150l120 571c30 143 116 170 182 170c61 0 118 -43 118 -108c0 -16 -1 -29 -3 -41h-47c1 10 2 19 2 27c0 23 -18 34 -38 34
c-21 0 -54 -12 -68 -79l-17 -82h433l-263 -458c23 -1 49 -2 73 -2c31 0 55 4 55 22z" />
    <glyph glyph-name="g_p" unicode="gp" horiz-adv-x="944" 
d="M312 500h145l-99 -471c34 5 68 10 97 14l97 457h141l-5 -22c23 12 49 21 76 21c105 0 148 -38 148 -144c0 -269 -146 -333 -220 -354c-31 -9 -69 -14 -107 -16l-42 -199l-150 -36l48 229c-29 -2 -61 -2 -95 -4l-11 -55c-29 -143 -117 -170 -182 -170
c-80 0 -116 41 -116 106c0 74 75 116 169 142l9 42c-31 -27 -70 -48 -116 -48c-96 0 -124 81 -124 140c0 138 53 367 247 367c36 0 65 -21 80 -47zM233 443c-97 0 -135 -206 -135 -292c0 -48 29 -63 73 -63c20 0 41 15 61 36l59 276c-16 30 -41 43 -58 43zM676 93
c39 18 80 57 107 179c10 44 14 77 14 103c0 61 -25 75 -57 75c-21 0 -43 -10 -63 -25l-74 -354c30 6 57 16 73 22zM90 -128c0 -14 12 -40 34 -40c20 0 53 26 65 85l8 39c-62 -15 -107 -40 -107 -84z" />
    <glyph glyph-name="g_x" unicode="gx" horiz-adv-x="854" 
d="M312 500h145l-97 -461c81 32 161 70 212 126l-73 335h145l50 -235c48 44 95 107 97 156c-6 -1 -12 -2 -17 -2c-34 0 -47 25 -47 56c0 34 31 49 68 49c39 0 56 -45 56 -90c0 -66 -92 -167 -146 -221l13 -58c9 -41 14 -64 59 -64c40 0 92 56 132 88h34
c-46 -46 -159 -179 -237 -179c-76 0 -98 17 -121 105c-49 -55 -144 -92 -237 -123l-13 -62c-30 -143 -116 -170 -182 -170c-49 0 -106 37 -106 90c0 65 67 104 155 140l12 55c-30 -23 -69 -41 -115 -41c-96 0 -124 68 -124 127c0 138 53 378 247 378c36 0 65 -21 80 -47z
M233 443c-97 0 -135 -217 -135 -303c0 -48 29 -63 73 -63c19 0 40 14 59 33l61 290c-16 30 -41 43 -58 43zM95 -144c0 -21 15 -30 35 -30s46 32 59 91l2 12c-57 -22 -96 -44 -96 -73z" />
    <glyph glyph-name="g_z" unicode="gz" horiz-adv-x="872" 
d="M99 -6c-96 0 -124 68 -124 127c0 138 53 378 247 378c36 0 65 -21 80 -47l10 48h145l-122 -580c-30 -143 -116 -170 -182 -170c-61 0 -118 43 -118 108c0 91 74 106 167 124l12 54c-30 -24 -69 -42 -115 -42zM723 62c-9 0 -18 11 -18 28c0 47 32 61 64 61
c28 0 47 -26 47 -58c0 -51 -37 -93 -117 -93h-290l301 458c-23 1 -50 2 -73 2c-31 0 -55 -4 -55 -22c9 0 17 -12 17 -29c0 -47 -31 -60 -63 -60c-28 0 -47 26 -47 58c0 51 37 93 117 93h269l-301 -458c23 -1 53 -2 81 -2c37 0 68 4 68 22zM233 443
c-97 0 -135 -217 -135 -303c0 -48 29 -63 73 -63c19 0 39 14 58 33l62 290c-16 30 -41 43 -58 43zM90 -128c0 -14 18 -33 40 -33c21 0 46 19 59 78l7 33c-63 -11 -106 -24 -106 -78z" />
    <glyph glyph-name="i_j" unicode="ij" horiz-adv-x="497" 
d="M323 500h144l-93 -438c62 30 119 74 153 148l-4 -79c-13 -63 -81 -93 -159 -115l-20 -96c-30 -143 -114 -170 -180 -170c-61 0 -118 43 -118 108c0 92 77 122 172 150zM218 500l-106 -500h-143l106 500h143zM88 632c0 44 35 80 79 80s80 -36 80 -80s-36 -79 -80 -79
s-79 35 -79 79zM334 634c0 44 35 80 79 80s80 -36 80 -80s-36 -79 -80 -79s-79 35 -79 79zM101 -128c0 -14 18 -33 40 -33c20 0 46 19 58 78l12 58c-63 -21 -110 -49 -110 -103z" />
    <glyph glyph-name="i_s" unicode="is" horiz-adv-x="625" 
d="M71 500h145l-72 -340c-4 -17 -8 -36 -8 -50c0 -17 6 -29 26 -29c19 0 37 20 54 47c0 83 36 129 76 132c36 65 59 154 76 230l145 30v-14c0 -165 67 -215 68 -332l-1 -21c28 25 53 51 65 65l26 -34c-28 -22 -68 -57 -108 -91c-26 -55 -83 -93 -176 -93
c-92 0 -147 20 -165 79c-33 -44 -70 -79 -104 -79c-78 0 -124 34 -124 109c0 16 2 32 6 51zM369 199c0 -38 -31 -64 -66 -64c-12 0 -24 2 -36 8c0 -59 32 -84 85 -84c34 0 83 42 83 119c0 62 -45 115 -47 240c-16 -49 -30 -113 -52 -163c24 -8 33 -26 33 -56zM88 632
c0 44 35 80 79 80s80 -36 80 -80s-36 -79 -80 -79s-79 35 -79 79z" />
    <glyph glyph-name="i_s_x" unicode="isx" horiz-adv-x="959" 
d="M581 500h145l51 -205c50 42 100 100 102 149c-6 -1 -12 -2 -17 -2c-34 0 -47 25 -47 56c0 34 31 49 68 49c40 0 56 -38 56 -83c0 -66 -94 -163 -149 -218l23 -91c10 -41 17 -64 62 -64c40 0 92 56 132 88h34c-46 -46 -159 -179 -237 -179c-88 0 -113 24 -138 155l-5 19
c-26 -22 -60 -52 -95 -81c-26 -55 -83 -93 -176 -93s-148 21 -165 82c-35 -45 -73 -82 -107 -82c-78 0 -124 34 -124 109c0 16 2 32 6 51l71 340h145l-72 -340c-4 -17 -8 -35 -8 -49c0 -18 6 -30 26 -30s39 22 57 52c0 79 36 124 76 127c36 65 59 154 76 230l145 30v-14
c0 -165 67 -215 67 -353c28 25 53 51 65 65l3 -5zM372 199c0 -38 -31 -64 -66 -64c-12 0 -24 3 -36 9c0 -59 32 -85 85 -85c34 0 83 42 83 119c0 62 -45 115 -47 240c-16 -49 -30 -113 -52 -163c24 -8 33 -26 33 -56zM88 632c0 44 35 80 79 80s80 -36 80 -80
s-36 -79 -80 -79s-79 35 -79 79z" />
    <glyph glyph-name="i_s_z" unicode="isz" horiz-adv-x="990" 
d="M61 500h145l-72 -340c-4 -17 -8 -36 -8 -50c0 -17 6 -29 24 -29c19 0 37 20 55 47c0 82 36 128 76 131c34 65 54 153 71 229l145 30v-14c0 -165 73 -213 73 -330c0 -93 -59 -174 -194 -174c-91 0 -146 20 -164 78c-34 -43 -71 -78 -104 -78c-78 0 -124 34 -124 109
c0 16 2 32 6 51zM842 62c-9 0 -18 11 -18 28c0 47 32 61 64 61c28 0 47 -26 47 -58c0 -51 -37 -93 -117 -93h-269l263 458c-23 1 -50 2 -73 2c-31 0 -55 -4 -55 -22c9 0 17 -12 17 -29c0 -47 -31 -60 -63 -60c-28 0 -47 26 -47 58c0 51 37 93 117 93h269l-263 -458
c23 -1 49 -2 73 -2c31 0 55 4 55 22zM358 199c-1 -38 -31 -64 -66 -64c-12 0 -23 3 -35 8c-1 -5 -2 -11 -2 -16c0 -43 47 -68 86 -68c34 0 83 42 83 119c0 62 -45 115 -47 240c-16 -49 -30 -113 -52 -163c24 -8 33 -26 33 -56zM78 632c0 44 35 80 79 80s80 -36 80 -80
s-36 -79 -80 -79s-79 35 -79 79z" />
    <glyph glyph-name="i_x" unicode="ix" horiz-adv-x="611" 
d="M259 500h145l46 -217c57 64 100 130 109 178c-6 -1 -12 -2 -17 -2c-35 0 -47 25 -47 56c0 34 32 49 68 49c29 0 50 -29 50 -78c0 -48 -47 -136 -152 -252l17 -79c9 -41 14 -64 59 -64c40 0 92 56 132 88h34c-46 -46 -159 -179 -237 -179c-79 0 -100 19 -124 117
c-79 -67 -160 -117 -221 -117c-78 0 -127 34 -127 110c0 15 2 32 6 50l71 340h145l-72 -340c-2 -9 -6 -28 -6 -44c0 -20 5 -37 23 -37c41 0 105 36 170 89zM88 632c0 44 35 80 79 80s80 -36 80 -80s-36 -79 -80 -79s-79 35 -79 79z" />
    <glyph glyph-name="i_z" unicode="iz" horiz-adv-x="648" 
d="M71 632c0 44 35 80 79 80s80 -36 80 -80s-36 -79 -80 -79s-79 35 -79 79zM201 500l-72 -340c-3 -12 -5 -23 -5 -34c0 -21 8 -37 36 -37c7 0 18 0 26 3c-28 -86 -70 -92 -104 -92c-71 0 -102 47 -102 110c0 16 2 33 6 50l72 340h143zM488 62c-9 0 -18 11 -18 28
c0 47 32 61 64 61c28 0 47 -26 47 -58c0 -51 -37 -93 -117 -93h-269l263 458c-23 1 -50 2 -73 2c-31 0 -55 -4 -55 -22c9 0 17 -12 17 -29c0 -47 -31 -60 -63 -60c-28 0 -47 26 -47 58c0 51 37 93 117 93h269l-263 -458c23 -1 49 -2 73 -2c31 0 55 4 55 22z" />
    <glyph glyph-name="iacute_s" unicode="&#xed;s" horiz-adv-x="625" 
d="M71 500h145l-72 -340c-4 -19 -11 -39 -11 -54s7 -25 27 -25c19 0 38 21 56 49c0 81 36 127 76 130c36 65 59 154 76 230l145 30v-14c0 -165 67 -215 68 -332l-1 -21c28 25 53 51 65 65l26 -34c-28 -22 -68 -57 -108 -91c-26 -55 -83 -93 -176 -93c-92 0 -147 20 -165 79
c-33 -44 -70 -79 -104 -79c-78 0 -124 34 -124 109c0 16 2 32 6 51zM369 199c0 -38 -31 -64 -66 -64c-12 0 -24 2 -36 8c0 -59 32 -84 85 -84c34 0 83 42 83 119c0 62 -45 115 -47 240c-16 -49 -30 -113 -52 -163c24 -8 33 -26 33 -56zM113 561l91 189h105l-121 -189h-75z
" />
    <glyph glyph-name="iacute_s_x" unicode="&#xed;sx" horiz-adv-x="959" 
d="M581 500h145l51 -205c50 42 100 100 102 149c-6 -1 -12 -2 -17 -2c-34 0 -47 25 -47 56c0 34 31 49 68 49c39 0 56 -45 56 -90c0 -65 -94 -159 -149 -211l23 -91c10 -41 17 -64 62 -64c40 0 92 56 132 88h34c-46 -46 -159 -179 -237 -179c-88 0 -113 24 -138 155l-5 19
c-26 -22 -60 -52 -95 -81c-26 -55 -83 -93 -176 -93s-148 21 -165 82c-35 -45 -73 -82 -107 -82c-78 0 -124 34 -124 109c0 16 2 32 6 51l71 340h145l-72 -340c-4 -19 -11 -39 -11 -54s7 -25 27 -25s40 23 59 54c1 77 37 122 76 125c36 65 59 154 76 230l145 30v-14
c0 -165 68 -215 68 -332c0 -7 0 -14 -1 -21c28 25 53 51 65 65zM372 199c0 -38 -31 -64 -66 -64c-12 0 -24 3 -36 9c0 -59 32 -85 85 -85c34 0 83 42 83 119c0 62 -45 115 -47 240c-16 -49 -30 -113 -52 -163c24 -8 33 -26 33 -56zM115 561l91 189h105l-121 -189h-75z" />
    <glyph glyph-name="iacute_s_z" unicode="&#xed;sz" horiz-adv-x="989" 
d="M57 500h145l-72 -340c-4 -19 -10 -39 -10 -54s6 -25 26 -25c19 0 37 20 55 47c0 82 36 128 76 131c34 65 54 153 71 229l145 30v-14c0 -165 73 -213 73 -330c0 -93 -59 -174 -194 -174c-91 0 -146 20 -164 78c-34 -43 -71 -78 -104 -78c-78 0 -124 34 -124 109
c0 16 2 32 6 51zM838 62c-9 0 -18 11 -18 28c0 47 32 61 64 61c28 0 47 -26 47 -58c0 -51 -37 -93 -117 -93h-269l263 458c-23 1 -50 2 -73 2c-31 0 -55 -4 -55 -22c9 0 17 -12 17 -29c0 -47 -31 -60 -63 -60c-28 0 -47 26 -47 58c0 51 37 93 117 93h269l-263 -458
c23 -1 49 -2 73 -2c31 0 55 4 55 22zM354 199c-1 -38 -31 -64 -66 -64c-12 0 -23 3 -35 8c-1 -5 -2 -11 -2 -16c0 -43 47 -68 86 -68c34 0 83 42 83 119c0 62 -45 115 -47 240c-16 -49 -30 -113 -52 -163c24 -8 33 -26 33 -56zM101 561l91 189h105l-121 -189h-75z" />
    <glyph glyph-name="iacute_x" unicode="&#xed;x" horiz-adv-x="611" 
d="M259 500h145l46 -217c57 64 100 130 109 178c-6 -1 -12 -2 -17 -2c-35 0 -47 25 -47 56c0 34 32 49 68 49c22 0 50 -21 50 -70c0 -56 -42 -138 -152 -260l17 -79c9 -41 14 -64 59 -64c40 0 92 56 132 88h34c-46 -46 -159 -179 -237 -179c-79 0 -100 19 -124 117
c-79 -67 -160 -117 -221 -117c-78 0 -127 34 -127 110c0 15 2 32 6 50l71 340h145l-72 -340c-3 -11 -5 -26 -5 -40c0 -22 6 -41 22 -41c41 0 105 36 170 89zM122 561l91 189h105l-121 -189h-75z" />
    <glyph glyph-name="iacute_z" unicode="&#xed;z" horiz-adv-x="652" 
d="M495 62c-9 0 -18 11 -18 28c0 47 32 61 64 61c28 0 47 -26 47 -58c0 -51 -37 -93 -117 -93h-269l263 458c-23 1 -50 2 -73 2c-31 0 -55 -4 -55 -22c9 0 17 -12 17 -29c0 -47 -31 -60 -63 -60c-28 0 -47 26 -47 58c0 51 37 93 117 93h269l-263 -458c23 -1 49 -2 73 -2
c31 0 55 4 55 22zM204 500l-72 -340c-3 -12 -5 -23 -5 -34c0 -21 8 -37 36 -37c7 0 18 0 26 3c-28 -86 -70 -92 -104 -92c-71 0 -102 47 -102 110c0 16 2 33 6 50l72 340h143zM101 561l91 189h105l-121 -189h-75z" />
    <glyph glyph-name="j_x" unicode="jx" horiz-adv-x="602" 
d="M247 500h145l50 -235c48 44 95 107 97 156c-7 -1 -13 -2 -19 -2c-33 0 -45 22 -45 56s31 49 68 49c39 0 56 -45 56 -90c0 -66 -92 -167 -146 -221l13 -58c9 -41 14 -64 59 -64c40 0 92 56 132 88h34c-46 -46 -159 -179 -237 -179c-75 0 -98 17 -121 104
c-45 -46 -141 -70 -237 -93l-19 -91c-30 -143 -116 -170 -182 -170c-61 0 -118 43 -118 108c0 80 75 115 172 144l105 498h145l-96 -454c83 26 163 59 217 119zM70 634c0 44 35 80 79 80s80 -36 80 -80s-36 -79 -80 -79s-79 35 -79 79zM-168 -128c0 -14 18 -33 40 -33
c21 0 46 19 59 78l12 54c-65 -23 -111 -52 -111 -99z" />
    <glyph glyph-name="j_z" unicode="jz" horiz-adv-x="631" 
d="M-32 8l103 492h145l-122 -580c-30 -143 -116 -170 -182 -170c-61 0 -118 43 -118 108c0 93 78 122 174 150zM483 62c-9 0 -18 11 -18 28c0 47 32 61 64 61c28 0 47 -26 47 -58c0 -51 -37 -93 -117 -93h-269l263 458c-23 1 -50 2 -73 2c-31 0 -55 -4 -55 -22
c9 0 17 -12 17 -29c0 -47 -31 -60 -63 -60c-28 0 -47 26 -47 58c0 51 37 93 117 93h269l-263 -458c23 -1 49 -2 73 -2c31 0 55 4 55 22zM87 634c0 44 35 80 79 80s80 -36 80 -80s-36 -79 -80 -79s-79 35 -79 79zM-151 -128c0 -14 18 -33 40 -33c21 0 46 19 59 78l13 59
c-64 -21 -112 -50 -112 -104z" />
    <glyph glyph-name="l_x" unicode="lx" horiz-adv-x="651" 
d="M111 680l148 20l-115 -540c-3 -11 -5 -22 -5 -32c0 -22 11 -37 50 -37c35 0 109 47 162 85l-70 324h145l46 -216c44 44 86 102 88 148c-6 -1 -12 -2 -17 -2c-34 0 -47 25 -47 56c0 34 31 49 68 49c39 0 56 -41 56 -86c0 -62 -82 -159 -137 -216l17 -78
c9 -41 14 -64 59 -64c40 0 92 56 132 88h34c-46 -46 -159 -179 -237 -179c-81 0 -101 20 -126 125c-72 -56 -177 -125 -244 -125c-77 0 -124 34 -124 109c0 15 2 32 6 51z" />
    <glyph glyph-name="l_z" unicode="lz" horiz-adv-x="628" 
d="M259 700l-115 -540c-3 -12 -5 -23 -5 -34c0 -21 8 -37 36 -37c7 0 18 0 26 3c-28 -86 -70 -92 -104 -92c-71 0 -102 47 -102 110c0 16 2 33 6 50l110 520zM500 62c-9 0 -18 11 -18 28c0 47 32 61 64 61c28 0 47 -26 47 -58c0 -51 -37 -93 -117 -93h-269l263 458
c-23 1 -50 2 -73 2c-31 0 -55 -4 -55 -22c9 0 17 -12 17 -29c0 -47 -31 -60 -63 -60c-28 0 -47 26 -47 58c0 51 37 93 117 93h269l-263 -458c23 -1 49 -2 73 -2c31 0 55 4 55 22z" />
    <glyph glyph-name="m_x" unicode="mx" horiz-adv-x="1109" 
d="M683 351l-41 -191c-3 -12 -5 -25 -5 -37c0 -23 9 -41 41 -41c25 0 83 37 132 76l-74 342h145l53 -249c53 45 110 116 112 170c-6 -1 -12 -2 -17 -2c-34 0 -47 25 -47 56c0 34 31 49 68 49c39 0 56 -45 56 -90c0 -72 -110 -186 -160 -236l9 -43c8 -41 13 -64 59 -64
c40 0 92 56 132 88h34c-46 -46 -159 -179 -237 -179c-77 0 -99 18 -122 111c-68 -55 -155 -111 -205 -111c-78 0 -124 34 -124 109c0 16 2 32 6 51l38 180c2 9 3 18 3 26c0 36 -19 59 -46 59c-22 0 -39 -6 -58 -18c3 -12 5 -23 5 -35c0 -7 -1 -14 -2 -21l-74 -351h-145
l72 340c2 9 3 18 3 26c0 36 -19 59 -46 59c-24 0 -41 -7 -61 -21l-86 -404h-144l106 500h144l-11 -53c40 29 86 53 129 53c37 0 77 -27 99 -66c44 35 97 66 146 66c54 0 115 -58 115 -125c0 -8 0 -16 -2 -24z" />
    <glyph glyph-name="m_z" unicode="mz" horiz-adv-x="1134" 
d="M696 92c-28 -86 -70 -92 -104 -92c-65 0 -102 34 -102 109c0 16 2 32 6 51l38 180c2 9 3 18 3 26c0 36 -19 59 -46 59c-22 0 -38 -6 -56 -17c3 -12 5 -24 5 -36c0 -7 -1 -14 -2 -21l-74 -351h-145l72 340c2 9 3 18 3 26c0 36 -19 59 -46 59c-24 0 -41 -7 -61 -21
l-86 -404h-144l106 500h144l-11 -53c40 29 86 53 129 53c37 0 76 -26 98 -64c45 34 96 64 145 64c55 0 115 -58 115 -126c0 -8 -1 -15 -2 -23c-5 -33 -48 -209 -48 -231c0 -17 8 -31 37 -31c7 0 18 0 26 3zM990 62c-9 0 -18 11 -18 28c0 47 32 61 64 61c28 0 47 -26 47 -58
c0 -51 -37 -93 -117 -93h-269l263 458c-23 1 -50 2 -73 2c-31 0 -55 -4 -55 -22c9 0 17 -12 17 -29c0 -47 -31 -60 -63 -60c-28 0 -47 26 -47 58c0 51 37 93 117 93h269l-263 -458c23 -1 49 -2 73 -2c31 0 55 4 55 22z" />
    <glyph glyph-name="n_z" unicode="nz" horiz-adv-x="872" 
d="M461 92c-28 -86 -70 -92 -104 -92c-65 0 -102 34 -102 109c0 16 2 32 6 51l38 180c2 9 3 18 3 26c0 36 -19 59 -46 59c-24 0 -42 -7 -63 -21l-85 -404h-144l106 500h144l-12 -54c41 30 87 54 131 54c55 0 115 -58 115 -126c0 -8 -1 -15 -2 -23c-5 -33 -48 -209 -48 -231
c0 -17 8 -31 37 -31c7 0 18 0 26 3zM740 62c-9 0 -18 11 -18 28c0 47 32 61 64 61c28 0 47 -26 47 -58c0 -51 -37 -93 -117 -93h-269l263 458c-23 1 -50 2 -73 2c-31 0 -55 -4 -55 -22c9 0 17 -12 17 -29c0 -47 -31 -60 -63 -60c-28 0 -47 26 -47 58c0 51 37 93 117 93h269
l-263 -458c23 -1 49 -2 73 -2c31 0 55 4 55 22z" />
    <glyph glyph-name="o_s" unicode="os" horiz-adv-x="763" 
d="M256 510c94 0 119 -73 121 -145c5 -3 11 -4 19 -4c81 0 115 88 151 141l109 22c0 -181 66 -228 66 -348c0 -5 0 -10 -1 -14c24 22 46 44 56 56l26 -34c-25 -20 -61 -51 -97 -82c-28 -59 -90 -102 -187 -102c-103 0 -134 59 -134 136c0 66 56 107 110 107
c35 0 47 -28 47 -71c0 -26 -37 -59 -68 -59c-16 0 -32 7 -42 25c-2 -7 -3 -13 -3 -19c0 -28 23 -45 76 -45c57 0 85 23 85 105c0 59 -33 119 -35 239c-78 -82 -96 -120 -182 -137c-22 -193 -129 -287 -227 -287c-107 0 -153 45 -153 164c0 246 125 352 263 352zM193 91
c61 0 95 96 107 193c-29 0 -42 21 -42 45c0 29 17 60 44 70c-3 33 -14 52 -42 52c-94 0 -134 -204 -134 -284c0 -60 28 -76 67 -76z" />
    <glyph glyph-name="o_s_x" unicode="osx" horiz-adv-x="1094" 
d="M256 510c94 0 119 -73 121 -145c5 -3 11 -4 19 -4c81 0 115 88 151 141l109 22c0 -181 66 -228 66 -348c0 -13 -1 -27 -4 -39c33 25 70 55 92 76l-70 287h145l51 -205c50 42 100 100 102 149c-7 -1 -12 -2 -18 -2c-33 0 -46 26 -46 56c0 34 31 49 68 49
c39 0 56 -45 56 -90c0 -65 -94 -159 -149 -211l23 -91c10 -41 17 -64 62 -64c40 0 92 56 132 88h34c-46 -46 -159 -179 -237 -179c-88 0 -113 24 -138 155l-4 16c-108 -62 -156 -171 -302 -171c-103 0 -134 59 -134 136c0 66 56 107 110 107c35 0 47 -28 47 -71
c0 -26 -37 -59 -68 -59c-16 0 -32 7 -42 25c-2 -7 -4 -15 -4 -22c0 -31 23 -57 75 -57c57 0 87 38 87 120c0 59 -33 119 -35 239c-78 -82 -96 -120 -182 -137c-22 -193 -129 -287 -227 -287c-107 0 -153 45 -153 164c0 246 125 352 263 352zM193 91c61 0 95 96 107 193
c-29 0 -42 21 -42 45c0 29 17 60 44 70c-3 33 -14 52 -42 52c-94 0 -134 -204 -134 -284c0 -60 28 -76 67 -76z" />
    <glyph glyph-name="o_s_z" unicode="osz" horiz-adv-x="1141" 
d="M256 510c94 0 119 -73 121 -145c5 -3 11 -4 19 -4c81 0 115 88 151 141l109 22c0 -181 66 -228 66 -348c0 -93 -68 -176 -203 -176c-103 0 -134 59 -134 136c0 66 56 107 110 107c35 0 47 -28 47 -71c0 -26 -37 -59 -68 -59c-16 0 -32 7 -42 25c-2 -7 -3 -14 -3 -21
c0 -30 22 -55 75 -55c57 0 86 35 86 117c0 59 -33 119 -35 239c-78 -82 -96 -120 -182 -137c-22 -193 -129 -287 -227 -287c-107 0 -153 45 -153 164c0 246 125 352 263 352zM999 62c-9 0 -18 11 -18 28c0 47 32 61 64 61c28 0 47 -26 47 -58c0 -51 -37 -93 -117 -93h-269
l263 458c-23 1 -50 2 -73 2c-31 0 -55 -4 -55 -22c9 0 17 -12 17 -29c0 -47 -31 -60 -63 -60c-28 0 -47 26 -47 58c0 51 37 93 117 93h269l-263 -458c23 -1 49 -2 73 -2c31 0 55 4 55 22zM193 91c61 0 95 96 107 193c-29 0 -42 21 -42 45c0 29 17 60 44 70
c-3 33 -14 52 -42 52c-94 0 -134 -204 -134 -284c0 -60 28 -76 67 -76z" />
    <glyph glyph-name="o_x" unicode="ox" horiz-adv-x="805" 
d="M439 500h145l48 -226c51 44 104 109 106 161c-6 -1 -12 -2 -17 -2c-35 0 -47 25 -47 56c0 34 32 49 68 49c37 0 56 -41 56 -84c0 -68 -99 -193 -156 -227l16 -72c9 -41 14 -64 59 -64c40 0 92 56 132 88h34c-46 -46 -159 -179 -237 -179c-88 0 -104 24 -132 155
c-53 -30 -102 -76 -102 -117c5 1 9 1 13 1c34 0 41 -26 41 -49c0 -39 -23 -55 -56 -55c-45 0 -66 28 -66 71c0 68 88 156 159 200l-39 180c-23 -28 -53 -55 -89 -74c-13 -214 -126 -318 -229 -318c-107 0 -153 45 -153 164c0 246 125 352 263 352c90 0 116 -66 120 -135
c39 0 60 25 80 48zM193 91c60 0 95 95 107 192h-7c-28 0 -41 26 -41 55s16 60 46 67c-1 29 -11 46 -38 46c-94 0 -134 -204 -134 -284c0 -60 28 -76 67 -76z" />
    <glyph glyph-name="oacute_s" unicode="&#xf3;s" horiz-adv-x="769" 
d="M256 510c94 0 119 -73 121 -145c5 -3 11 -4 19 -4c81 0 115 88 151 141l109 22c0 -181 66 -228 66 -348c0 -5 0 -10 -1 -14c24 22 46 44 56 56l26 -34c-25 -20 -61 -51 -97 -82c-28 -59 -90 -102 -187 -102c-103 0 -134 59 -134 136c0 66 56 107 110 107
c35 0 47 -28 47 -71c0 -26 -37 -59 -68 -59c-16 0 -32 7 -42 25c0 -46 10 -75 74 -75c57 0 84 34 84 116c0 59 -33 119 -35 239c-78 -82 -96 -120 -182 -137c-22 -193 -129 -287 -227 -287c-107 0 -153 45 -153 164c0 246 125 352 263 352zM193 91c61 0 95 96 107 193
c-29 0 -42 21 -42 45c0 29 17 60 44 70c-3 33 -14 52 -42 52c-94 0 -134 -204 -134 -284c0 -60 28 -76 67 -76zM234 561l91 189h105l-121 -189h-75z" />
    <glyph glyph-name="oacute_s_x" unicode="&#xf3;sx" horiz-adv-x="1094" 
d="M256 510c94 0 119 -73 121 -145c5 -3 11 -4 19 -4c81 0 115 88 151 141l109 22c0 -181 66 -228 66 -348c0 -13 -1 -27 -4 -39c33 25 70 55 92 76l-70 287h145l54 -215c48 45 97 109 99 159c-6 -1 -12 -2 -17 -2c-35 0 -47 25 -47 56c0 34 32 49 68 49c37 0 56 -41 56 -84
c0 -67 -91 -171 -147 -228l21 -80c11 -41 16 -64 62 -64c40 0 92 56 132 88h34c-46 -46 -159 -179 -237 -179c-88 0 -113 24 -138 155l-4 16c-108 -62 -156 -171 -302 -171c-103 0 -134 59 -134 136c0 66 56 107 110 107c35 0 47 -28 47 -71c0 -26 -37 -59 -68 -59
c-16 0 -32 7 -42 25c-3 -8 -4 -15 -4 -22c0 -31 23 -57 75 -57c57 0 87 38 87 120c0 59 -33 119 -35 239c-78 -82 -96 -120 -182 -137c-22 -193 -129 -287 -227 -287c-107 0 -153 45 -153 164c0 246 125 352 263 352zM193 91c61 0 95 96 107 193c-29 0 -42 21 -42 45
c0 29 17 60 44 70c-3 33 -14 52 -42 52c-94 0 -134 -204 -134 -284c0 -60 28 -76 67 -76zM227 561l91 189h105l-121 -189h-75z" />
    <glyph glyph-name="oacute_s_z" unicode="&#xf3;sz" horiz-adv-x="1148" 
d="M256 510c94 0 119 -73 121 -145c5 -3 11 -4 19 -4c81 0 115 88 151 141l109 22c0 -177 66 -228 66 -348c0 -93 -68 -176 -203 -176c-103 0 -134 57 -134 143c0 77 56 100 110 100c35 0 46 -29 46 -72c0 -27 -36 -56 -69 -56c-15 0 -30 6 -40 23c-2 -7 -4 -15 -4 -22
c0 -32 24 -53 76 -53c54 0 85 30 85 105c0 63 -32 123 -34 250c-78 -82 -96 -120 -182 -137c-22 -193 -129 -287 -227 -287c-107 0 -153 45 -153 164c0 246 125 352 263 352zM999 62c-9 0 -18 11 -18 28c0 47 32 61 64 61c28 0 47 -26 47 -58c0 -51 -37 -93 -117 -93h-269
l263 458c-23 1 -50 2 -73 2c-31 0 -55 -4 -55 -22c9 0 17 -12 17 -29c0 -47 -31 -60 -63 -60c-28 0 -47 26 -47 58c0 51 37 93 117 93h269l-263 -458c23 -1 49 -2 73 -2c31 0 55 4 55 22zM193 91c61 0 95 96 107 193c-29 0 -42 21 -42 45c0 29 17 60 44 70
c-3 33 -14 52 -42 52c-94 0 -134 -204 -134 -284c0 -60 28 -76 67 -76zM236 561l91 189h105l-121 -189h-75z" />
    <glyph glyph-name="oacute_x" unicode="&#xf3;x" horiz-adv-x="805" 
d="M249 510c95 0 119 -74 121 -147c6 -6 15 -9 29 -9c28 0 47 12 66 25l-26 121h145l49 -229c50 45 103 112 105 164c-6 -1 -12 -2 -17 -2c-35 0 -47 25 -47 56c0 34 32 49 68 49c37 0 56 -41 56 -84c0 -71 -100 -181 -154 -235l14 -64c9 -41 14 -64 59 -64
c40 0 92 56 132 88h34c-46 -46 -159 -179 -237 -179c-86 0 -104 23 -131 147c-50 -34 -99 -82 -109 -124c5 1 9 1 13 1c34 0 41 -26 41 -49c0 -39 -23 -55 -56 -55c-45 0 -70 28 -70 71c0 71 98 157 170 209l-32 147c-29 -23 -66 -42 -105 -53c-19 -201 -128 -300 -228 -300
c-107 0 -153 45 -153 164c0 246 125 352 263 352zM186 91c61 0 95 96 107 193c-29 0 -42 21 -42 45c0 29 17 60 44 70c-3 33 -14 52 -42 52c-94 0 -134 -204 -134 -284c0 -60 28 -76 67 -76zM212 561l91 189h105l-121 -189h-75z" />
    <glyph glyph-name="r_x" unicode="rx" horiz-adv-x="781" 
d="M421 500h145l47 -221c42 43 80 98 82 142c-6 -1 -12 -2 -17 -2c-34 0 -47 25 -47 56c0 34 31 49 68 49c39 0 56 -45 56 -90c0 -60 -76 -150 -131 -206l16 -73c9 -41 14 -64 59 -64c40 0 92 56 132 88h34c-46 -46 -159 -179 -237 -179c-86 0 -103 23 -130 144
c-54 -35 -111 -85 -121 -131c5 1 9 1 14 1c33 0 40 -26 40 -49c0 -39 -23 -55 -56 -55c-45 0 -70 28 -70 71c0 75 109 167 181 218zM62 500h144l-11 -50c36 28 76 50 118 50c45 0 72 -26 72 -64c0 -35 -26 -78 -75 -78c-56 0 -28 66 -58 66s-46 -11 -69 -32l-83 -392h-144z
" />
    <glyph glyph-name="r_z" unicode="rz" horiz-adv-x="710" 
d="M563 62c-9 0 -18 11 -18 28c0 47 32 61 64 61c28 0 47 -26 47 -58c0 -51 -37 -93 -117 -93h-269l263 458c-23 1 -50 2 -74 2c-11 0 -22 0 -31 -2c3 -7 4 -14 4 -22c0 -34 -30 -78 -79 -78c-66 0 -16 66 -54 66c-33 0 -68 -14 -108 -41l-81 -383h-144l106 500h144l-13 -60
c51 32 110 60 157 60h338l-263 -458c23 -1 49 -2 73 -2c31 0 55 4 55 22z" />
    <glyph glyph-name="s_x" unicode="sx" horiz-adv-x="734" 
d="M352 500h145l51 -205c50 42 100 100 102 149c-8 -2 -14 -3 -20 -3c-32 0 -44 28 -44 57c0 34 31 49 68 49c39 0 56 -45 56 -90c0 -65 -94 -159 -149 -211l23 -91c10 -41 17 -64 62 -64c40 0 92 56 132 88h34c-46 -46 -159 -179 -237 -179c-88 0 -106 25 -139 156
c-87 -74 -156 -156 -273 -156c-115 0 -171 33 -171 131c0 79 36 125 76 128c34 65 54 153 71 229l145 30v-14c0 -165 73 -213 73 -330c0 -15 -2 -29 -5 -43c27 24 55 50 74 69zM145 199c-1 -38 -31 -64 -66 -64c-12 0 -24 3 -36 9c0 -59 32 -85 85 -85c34 0 83 42 83 119
c0 62 -45 115 -47 240c-16 -49 -30 -113 -52 -163c24 -8 33 -26 33 -56z" />
    <glyph glyph-name="s_z" unicode="sz" horiz-adv-x="764" 
d="M126 488l145 30v-14c0 -165 73 -213 73 -330c0 -93 -59 -174 -194 -174c-115 0 -171 33 -171 131c0 79 36 125 76 128c34 65 54 153 71 229zM623 62c-9 0 -18 11 -18 28c0 47 32 61 64 61c28 0 47 -26 47 -58c0 -51 -37 -93 -117 -93h-269l263 458c-23 1 -50 2 -73 2
c-31 0 -55 -4 -55 -22c9 0 17 -12 17 -29c0 -47 -31 -60 -63 -60c-28 0 -47 26 -47 58c0 51 37 93 117 93h269l-263 -458c23 -1 49 -2 73 -2c31 0 55 4 55 22zM132 199c-1 -38 -31 -64 -66 -64c-12 0 -24 3 -36 9c0 -59 32 -85 85 -85c34 0 83 42 83 119
c0 62 -45 115 -47 240c-16 -49 -30 -113 -52 -163c24 -8 33 -26 33 -56z" />
    <glyph glyph-name="t_x" unicode="tx" horiz-adv-x="653" 
d="M112 680l148 20s-15 -70 -34 -160h210l51 -243c43 44 82 100 84 144c-6 -1 -12 -2 -17 -2c-34 0 -47 25 -47 56c0 34 31 49 68 49c39 0 56 -45 56 -90c0 -61 -79 -152 -133 -208l19 -91c8 -41 13 -64 59 -64c40 0 92 56 132 88h34c-46 -46 -159 -179 -237 -179
c-85 0 -103 22 -129 139c-77 -59 -199 -139 -257 -139c-78 0 -124 34 -124 109c0 16 2 32 6 51l71 340h-53v41h62zM218 500l-73 -340c-3 -11 -5 -22 -5 -32c0 -22 11 -37 50 -37c32 0 116 46 176 96l-67 313h-81z" />
    <glyph glyph-name="t_z" unicode="tz" horiz-adv-x="679" 
d="M212 460l-64 -300c-3 -12 -5 -24 -5 -35c0 -21 8 -36 35 -36c7 0 18 0 26 3c-28 -86 -72 -92 -106 -92c-70 0 -100 46 -100 108c0 16 2 34 6 52l64 300h-33l8 40h33l30 138l148 20s-15 -68 -34 -158h60l-8 -40h-60zM526 62c-9 0 -18 11 -18 28c0 47 32 61 64 61
c28 0 47 -26 47 -58c0 -51 -37 -93 -117 -93h-269l263 458c-23 1 -50 2 -73 2c-31 0 -55 -4 -55 -22c9 0 17 -12 17 -29c0 -47 -31 -60 -63 -60c-28 0 -47 26 -47 58c0 51 37 93 117 93h269l-263 -458c23 -1 49 -2 73 -2c31 0 55 4 55 22z" />
    <glyph glyph-name="u_v" unicode="uv" horiz-adv-x="929" 
d="M474 500l-106 -500h-143l15 71c-44 -38 -91 -71 -129 -71c-77 0 -124 34 -124 109c0 15 2 32 6 51l70 340h147l-73 -340c-2 -11 -5 -22 -5 -32c0 -22 11 -37 50 -37c21 0 45 15 69 34l80 375h143zM823 520c43 0 64 -38 64 -90c0 -156 -79 -430 -281 -430
c-77 0 -124 34 -124 109c0 15 2 32 6 51l59 286l-26 13l8 41h176l-73 -340c-3 -14 -6 -26 -6 -37c0 -19 9 -32 38 -32c98 0 165 219 165 328c-6 -2 -15 -4 -21 -4c-29 0 -42 28 -42 56c0 21 24 49 57 49z" />
    <glyph glyph-name="y_p" unicode="yp" horiz-adv-x="967" 
d="M63 500h147l-73 -340c-3 -11 -5 -22 -5 -32c0 -22 11 -37 50 -37c23 0 50 18 76 40l78 369h145l-97 -462c31 4 61 6 89 9l96 453h141l-5 -21c23 12 47 20 74 20c105 0 148 -38 148 -144c0 -269 -146 -334 -220 -354c-30 -8 -67 -13 -105 -16l-42 -199l-150 -36l49 234
c-27 1 -56 1 -87 1l-13 -65c-29 -143 -117 -170 -182 -170c-61 0 -118 43 -118 108c0 91 78 133 174 156l14 63c-45 -41 -96 -77 -136 -77c-78 0 -124 34 -124 109c0 16 2 32 6 51zM798 272c10 44 14 77 14 103c0 61 -25 75 -57 75c-20 0 -41 -10 -61 -24l-74 -354
c117 22 153 89 178 200zM114 -128c0 -14 18 -33 40 -33c20 0 47 19 59 78l11 55c-63 -14 -110 -43 -110 -100z" />
    <glyph glyph-name="y_x" unicode="yx" horiz-adv-x="875" 
d="M63 500h147l-73 -340c-3 -11 -5 -22 -5 -32c0 -22 11 -37 50 -37c23 0 50 18 76 39l78 370h145l-93 -441c76 26 151 57 205 106l-73 335h145l50 -236c44 43 84 116 86 163c-6 -1 -12 -2 -17 -2c-35 0 -47 25 -47 56c0 34 32 49 68 49c40 0 60 -45 60 -90
c0 -60 -80 -177 -135 -244l9 -41c9 -41 14 -64 59 -64c40 0 92 56 132 88h34c-46 -46 -159 -179 -237 -179c-74 0 -97 17 -119 100c-51 -34 -140 -57 -228 -79l-21 -101c-30 -143 -116 -170 -182 -170c-61 0 -118 43 -118 108c0 80 75 119 173 152l14 67
c-45 -41 -95 -77 -135 -77c-78 0 -124 34 -124 109c0 16 2 32 6 51zM114 -128c0 -14 18 -33 40 -33c20 0 47 19 59 78l12 58c-65 -25 -111 -56 -111 -103z" />
    <glyph glyph-name="y_z" unicode="yz" horiz-adv-x="897" 
d="M63 500h147l-73 -340c-3 -11 -5 -22 -5 -32c0 -22 11 -37 50 -37c23 0 50 18 76 40l78 369h145l-122 -580c-30 -143 -116 -170 -182 -170c-61 0 -118 43 -118 108c0 93 78 122 173 150l15 69c-45 -41 -96 -77 -136 -77c-78 0 -124 34 -124 109c0 16 2 32 6 51zM739 62
c-9 0 -18 11 -18 28c0 47 32 61 64 61c28 0 47 -26 47 -58c0 -51 -37 -93 -117 -93h-290l301 458c-23 1 -50 2 -73 2c-31 0 -55 -4 -55 -22c9 0 17 -12 17 -29c0 -47 -31 -60 -63 -60c-28 0 -47 26 -47 58c0 51 37 93 117 93h269l-301 -458c23 0 53 -2 81 -2
c37 0 68 4 68 22zM114 -128c0 -14 18 -33 40 -33c20 0 47 19 59 78l12 59c-63 -21 -111 -50 -111 -104z" />
    <glyph glyph-name=".notdef" horiz-adv-x="385" 
 />
    <glyph glyph-name="A" unicode="A" horiz-adv-x="668" 
d="M535 0h-144l77 363c-51 22 -92 33 -135 36c-75 -162 -129 -352 -129 -456c0 -51 13 -47 14 -56c-69 4 -134 6 -134 112c0 85 59 248 147 400c-60 -4 -103 -16 -117 -52c5 0 13 -17 13 -31c0 -21 -18 -39 -61 -39c-29 0 -57 18 -57 63c0 61 92 115 195 115
c17 0 37 -1 59 -3c101 162 231 299 349 299c24 0 56 -5 80 -15zM477 407l58 272c-61 -33 -126 -126 -182 -238c42 -8 85 -19 124 -34z" />
    <glyph glyph-name="A.calt" horiz-adv-x="736" 
d="M723 372l-7 -36l-47 -5l-70 -331h-144l67 317c-58 -6 -116 -10 -173 -13c-50 -136 -81 -277 -81 -361c0 -51 13 -47 14 -56c-69 4 -134 6 -134 112c0 67 36 181 94 300h-51c-127 0 -180 49 -180 92c0 80 125 90 173 90c54 0 101 -9 146 -24c101 159 229 294 346 294
c24 0 56 -5 80 -15l-79 -370c15 2 30 4 46 6zM401 428c38 -19 77 -40 119 -64l10 -6l69 324c-71 -31 -141 -133 -198 -254zM315 434c-34 10 -67 16 -94 16c-78 0 -125 -18 -125 -50c0 -28 41 -56 128 -56h40c16 30 33 60 51 90zM391 407l-26 -62c48 1 95 3 144 6
c-39 21 -79 40 -118 56z" />
    <glyph glyph-name="A.salt" horiz-adv-x="590" 
d="M459 0h-144l77 366h-158c-64 -154 -106 -326 -106 -423c0 -51 13 -47 14 -56c-69 4 -134 6 -134 112c0 189 290 752 528 752c24 0 56 -5 80 -15zM256 418h147l56 264c-73 -32 -145 -138 -203 -264z" />
    <glyph glyph-name="Aacute" unicode="&#xc1;" horiz-adv-x="668" 
d="M535 0h-144l77 363c-51 22 -92 33 -135 36c-75 -162 -129 -352 -129 -456c0 -51 13 -47 14 -56c-69 4 -134 6 -134 112c0 85 59 248 147 400c-60 -4 -103 -16 -117 -52c5 0 13 -17 13 -31c0 -21 -18 -39 -61 -39c-29 0 -57 18 -57 63c0 61 92 115 195 115
c17 0 37 -1 59 -3c101 162 231 299 349 299c24 0 56 -5 80 -15zM477 407l58 272c-61 -33 -126 -126 -182 -238c42 -8 85 -19 124 -34zM506 811l91 189h105l-121 -189h-75z" />
    <glyph glyph-name="Acircumflex" unicode="&#xc2;" horiz-adv-x="668" 
d="M535 0h-144l77 363c-51 22 -92 33 -135 36c-75 -162 -129 -352 -129 -456c0 -51 13 -47 14 -56c-69 4 -134 6 -134 112c0 85 59 248 147 400c-60 -4 -103 -16 -117 -52c5 0 13 -17 13 -31c0 -21 -18 -39 -61 -39c-29 0 -57 18 -57 63c0 61 92 115 195 115
c17 0 37 -1 59 -3c101 162 231 299 349 299c24 0 56 -5 80 -15zM477 407l58 272c-61 -33 -126 -126 -182 -238c42 -8 85 -19 124 -34zM710 811h-32l-60 80l-157 -80h-44l212 189h21z" />
    <glyph glyph-name="Adieresis" unicode="&#xc4;" horiz-adv-x="668" 
d="M535 0h-144l77 363c-51 22 -92 33 -135 36c-75 -162 -129 -352 -129 -456c0 -51 13 -47 14 -56c-69 4 -134 6 -134 112c0 85 59 248 147 400c-60 -4 -103 -16 -117 -52c5 0 13 -17 13 -31c0 -21 -18 -39 -61 -39c-29 0 -57 18 -57 63c0 61 92 115 195 115
c17 0 37 -1 59 -3c101 162 231 299 349 299c24 0 56 -5 80 -15zM477 407l58 272c-61 -33 -126 -126 -182 -238c42 -8 85 -19 124 -34zM610 884c0 33 27 61 61 61c33 0 61 -28 61 -61c0 -34 -28 -61 -61 -61c-34 0 -61 27 -61 61zM430 884c0 33 27 61 61 61
c33 0 61 -28 61 -61c0 -34 -28 -61 -61 -61c-34 0 -61 27 -61 61z" />
    <glyph glyph-name="Agrave" unicode="&#xc0;" horiz-adv-x="668" 
d="M535 0h-144l77 363c-51 22 -92 33 -135 36c-75 -162 -129 -352 -129 -456c0 -51 13 -47 14 -56c-69 4 -134 6 -134 112c0 85 59 248 147 400c-60 -4 -103 -16 -117 -52c5 0 13 -17 13 -31c0 -21 -18 -39 -61 -39c-29 0 -57 18 -57 63c0 61 92 115 195 115
c17 0 37 -1 59 -3c101 162 231 299 349 299c24 0 56 -5 80 -15zM477 407l58 272c-61 -33 -126 -126 -182 -238c42 -8 85 -19 124 -34zM546 811l-59 189h105l29 -189h-75z" />
    <glyph glyph-name="Aring" unicode="&#xc5;" horiz-adv-x="668" 
d="M535 0h-144l77 363c-51 22 -92 33 -135 36c-75 -162 -129 -352 -129 -456c0 -51 13 -47 14 -56c-69 4 -134 6 -134 112c0 85 59 248 147 400c-60 -4 -103 -16 -117 -52c5 0 13 -17 13 -31c0 -21 -18 -39 -61 -39c-29 0 -57 18 -57 63c0 61 92 115 195 115
c17 0 37 -1 59 -3c101 162 231 299 349 299c24 0 56 -5 80 -15zM477 407l58 272c-61 -33 -126 -126 -182 -238c42 -8 85 -19 124 -34zM621 963c49 0 72 -34 72 -77c0 -44 -25 -84 -87 -84c-43 0 -70 32 -70 70c0 36 25 91 85 91zM656 883c0 19 -1 47 -33 47
c-35 0 -47 -31 -47 -56c0 -22 10 -37 34 -37c31 0 46 18 46 46z" />
    <glyph glyph-name="Atilde" unicode="&#xc3;" horiz-adv-x="668" 
d="M535 0h-144l77 363c-51 22 -92 33 -135 36c-75 -162 -129 -352 -129 -456c0 -51 13 -47 14 -56c-69 4 -134 6 -134 112c0 85 59 248 147 400c-60 -4 -103 -16 -117 -52c5 0 13 -17 13 -31c0 -21 -18 -39 -61 -39c-29 0 -57 18 -57 63c0 61 92 115 195 115
c17 0 37 -1 59 -3c101 162 231 299 349 299c24 0 56 -5 80 -15zM775 920l6 -1c-11 -47 -85 -100 -161 -100c-66 0 -113 37 -168 37c-26 0 -48 -9 -66 -26l-6 2c32 64 91 98 167 98c73 0 107 -33 165 -33c25 0 49 8 63 23zM477 407l58 272c-61 -33 -126 -126 -182 -238
c42 -8 85 -19 124 -34z" />
    <glyph glyph-name="B" unicode="B" horiz-adv-x="635" 
d="M230 636l148 20l-48 -222h7c83 0 142 89 142 165c0 56 -32 105 -110 105c-162 0 -270 -91 -270 -243c0 -51 13 -59 14 -68c-69 0 -107 25 -107 97c0 133 184 260 351 260c157 0 227 -78 227 -160c0 -59 -36 -121 -100 -158c82 -16 115 -85 115 -163
c0 -129 -89 -286 -199 -286c-60 0 -118 6 -118 69c0 17 4 38 13 63c19 -31 53 -36 67 -36c55 0 99 99 99 184c0 65 -25 123 -91 123c-13 0 -32 -1 -50 -3l-82 -383h-144z" />
    <glyph glyph-name="B.salt" horiz-adv-x="640" 
d="M230 636l148 20l-48 -222h7c83 0 142 89 142 165c0 56 -32 105 -110 105c-162 0 -270 -91 -270 -243c0 -51 13 -59 14 -68c-69 0 -107 25 -107 97c0 133 184 260 351 260c157 0 227 -78 227 -160c0 -59 -36 -121 -100 -158c81 -15 113 -76 113 -150
c0 -135 -110 -310 -235 -310c-39 0 -79 17 -118 58l-6 -30h-144zM370 386c-13 0 -32 -1 -50 -3l-62 -290c21 -20 41 -29 60 -29c73 0 131 121 131 215c0 59 -23 107 -79 107z" />
    <glyph glyph-name="C" unicode="C" horiz-adv-x="497" 
d="M500 180l23 -10c-53 -146 -186 -176 -280 -176c-102 0 -219 50 -219 255c0 218 71 501 337 501c93 0 174 -37 174 -134c0 -53 -19 -92 -70 -92c-16 0 -38 4 -57 26c25 7 44 57 44 82c0 16 -5 71 -69 71c-123 0 -202 -254 -202 -432c0 -131 24 -187 132 -187
c77 0 150 32 187 96z" />
    <glyph glyph-name="Ccedilla" unicode="&#xc7;" horiz-adv-x="497" 
d="M362 -108c0 -72 -62 -110 -120 -110c-51 0 -78 13 -107 28c9 16 21 32 40 32c41 0 46 -27 74 -27c17 0 30 21 30 42c0 18 -11 36 -39 36c-26 0 -41 -7 -52 -12l40 114c-98 4 -204 58 -204 254c0 218 71 501 337 501c93 0 174 -37 174 -134c0 -53 -19 -92 -70 -92
c-16 0 -38 4 -57 26c25 7 44 57 44 82c0 16 -5 71 -69 71c-123 0 -202 -254 -202 -432c0 -131 24 -187 132 -187c77 0 150 32 187 96l23 -10c-48 -132 -161 -169 -252 -175l-24 -61c20 5 38 8 53 8c42 0 62 -19 62 -50z" />
    <glyph glyph-name="D" unicode="D" horiz-adv-x="663" 
d="M230 636l148 20l-120 -561c19 -14 38 -20 57 -20c119 0 192 241 192 433c0 125 -23 196 -138 196c-162 0 -270 -91 -270 -243c0 -51 13 -59 14 -68c-69 0 -107 25 -107 97c0 133 184 260 351 260c231 0 288 -129 288 -270c0 -258 -129 -493 -277 -493
c-38 0 -79 16 -122 53l-8 -40h-144z" />
    <glyph glyph-name="E" unicode="E" horiz-adv-x="459" 
d="M461 180l23 -10c-53 -146 -172 -176 -266 -176c-138 0 -207 99 -207 202c0 96 60 196 181 221c-68 37 -99 95 -99 152c0 91 80 181 222 181c93 0 184 -37 184 -134c0 -53 -19 -92 -70 -92c-16 0 -38 4 -57 26c25 7 44 57 44 82c0 16 -2 74 -66 74
c-73 0 -122 -56 -122 -123c0 -58 38 -123 132 -165c-127 -52 -174 -132 -174 -201c0 -73 53 -133 117 -133c77 0 121 32 158 96z" />
    <glyph glyph-name="E.salt" horiz-adv-x="554" 
d="M322 419h154l-20 -74h-150l-51 -239h223l-21 -106h-369l144 668c-77 -4 -130 -48 -130 -207c0 -51 13 -59 14 -68c-69 0 -107 25 -107 97c0 133 94 260 341 260c40 0 103 -12 166 -12c31 0 62 3 90 12c-14 -42 -17 -103 -95 -120c-46 0 -93 9 -140 19z" />
    <glyph glyph-name="Eacute" unicode="&#xc9;" horiz-adv-x="459" 
d="M461 180l23 -10c-53 -146 -172 -176 -266 -176c-138 0 -207 99 -207 202c0 96 60 196 181 221c-68 37 -99 95 -99 152c0 91 80 181 222 181c93 0 184 -37 184 -134c0 -53 -19 -92 -70 -92c-16 0 -38 4 -57 26c25 7 44 57 44 82c0 16 -2 74 -66 74
c-73 0 -122 -56 -122 -123c0 -58 38 -123 132 -165c-127 -52 -174 -132 -174 -201c0 -73 53 -133 117 -133c77 0 121 32 158 96zM291 811l91 189h105l-121 -189h-75z" />
    <glyph glyph-name="Ecircumflex" unicode="&#xca;" horiz-adv-x="459" 
d="M461 180l23 -10c-53 -146 -172 -176 -266 -176c-138 0 -207 99 -207 202c0 96 60 196 181 221c-68 37 -99 95 -99 152c0 91 80 181 222 181c93 0 184 -37 184 -134c0 -53 -19 -92 -70 -92c-16 0 -38 4 -57 26c25 7 44 57 44 82c0 16 -2 74 -66 74
c-73 0 -122 -56 -122 -123c0 -58 38 -123 132 -165c-127 -52 -174 -132 -174 -201c0 -73 53 -133 117 -133c77 0 121 32 158 96zM496 811h-32l-60 80l-157 -80h-44l212 189h21z" />
    <glyph glyph-name="Edieresis" unicode="&#xcb;" horiz-adv-x="459" 
d="M461 180l23 -10c-53 -146 -172 -176 -266 -176c-138 0 -207 99 -207 202c0 96 60 196 181 221c-68 37 -99 95 -99 152c0 91 80 181 222 181c93 0 184 -37 184 -134c0 -53 -19 -92 -70 -92c-16 0 -38 4 -57 26c25 7 44 57 44 82c0 16 -2 74 -66 74
c-73 0 -122 -56 -122 -123c0 -58 38 -123 132 -165c-127 -52 -174 -132 -174 -201c0 -73 53 -133 117 -133c77 0 121 32 158 96zM188 884c0 33 27 61 61 61c33 0 61 -28 61 -61c0 -34 -28 -61 -61 -61c-34 0 -61 27 -61 61zM368 884c0 33 27 61 61 61c33 0 61 -28 61 -61
c0 -34 -28 -61 -61 -61c-34 0 -61 27 -61 61z" />
    <glyph glyph-name="Egrave" unicode="&#xc8;" horiz-adv-x="459" 
d="M461 180l23 -10c-53 -146 -172 -176 -266 -176c-138 0 -207 99 -207 202c0 96 60 196 181 221c-68 37 -99 95 -99 152c0 91 80 181 222 181c93 0 184 -37 184 -134c0 -53 -19 -92 -70 -92c-16 0 -38 4 -57 26c25 7 44 57 44 82c0 16 -2 74 -66 74
c-73 0 -122 -56 -122 -123c0 -58 38 -123 132 -165c-127 -52 -174 -132 -174 -201c0 -73 53 -133 117 -133c77 0 121 32 158 96zM321 811l-59 189h105l29 -189h-75z" />
    <glyph glyph-name="F" unicode="F" horiz-adv-x="495" 
d="M322 419h154l-20 -74h-150l-74 -345h-144l144 668c-77 -4 -130 -48 -130 -207c0 -51 13 -59 14 -68c-69 0 -107 25 -107 97c0 133 94 260 341 260c40 0 103 -12 166 -12c31 0 62 3 90 12c-14 -42 -17 -103 -95 -120c-46 0 -93 9 -140 19z" />
    <glyph glyph-name="G" unicode="G" horiz-adv-x="578" 
d="M417 418h129l-82 -376c-33 -153 -92 -249 -256 -249c-95 0 -139 69 -139 138c0 68 43 137 122 137c40 0 98 -3 98 -67c0 -11 -2 -25 -6 -40c-25 21 -40 26 -60 26c-46 0 -70 -39 -70 -76c0 -35 21 -68 63 -68c45 0 77 20 100 123l40 179c-58 -31 -113 -36 -122 -36
c-163 0 -215 118 -215 256c0 191 131 385 354 385c93 0 186 -37 186 -134c0 -53 -19 -92 -70 -92c-16 0 -50 4 -69 26c25 7 44 57 44 82c0 16 -5 71 -69 71c-110 0 -222 -187 -222 -346c0 -89 33 -165 116 -165c37 0 64 9 85 37z" />
    <glyph glyph-name="H" unicode="H" horiz-adv-x="631" 
d="M397 748l-65 -304c34 6 68 13 100 13c7 0 15 0 22 -1l62 292h144l-159 -748h-144l79 371c-22 8 -43 10 -64 10c-19 0 -38 -2 -54 -4l-80 -377h-144l145 680c-88 -37 -140 -113 -140 -219c0 -51 13 -59 14 -68c-69 0 -107 25 -107 97c0 133 184 260 351 260
c14 0 27 -1 40 -2z" />
    <glyph glyph-name="I" unicode="I" horiz-adv-x="375" 
d="M397 748l-159 -748h-144l145 679c-87 -36 -140 -111 -140 -218c0 -51 13 -59 14 -68c-69 0 -107 25 -107 97c0 133 184 260 351 260c14 0 27 -1 40 -2z" />
    <glyph glyph-name="Iacute" unicode="&#xcd;" horiz-adv-x="375" 
d="M397 748l-159 -748h-144l145 679c-87 -36 -140 -111 -140 -218c0 -51 13 -59 14 -68c-69 0 -107 25 -107 97c0 133 184 260 351 260c14 0 27 -1 40 -2zM301 811l91 189h105l-121 -189h-75z" />
    <glyph glyph-name="Icircumflex" unicode="&#xce;" horiz-adv-x="375" 
d="M397 748l-159 -748h-144l145 679c-87 -36 -140 -111 -140 -218c0 -51 13 -59 14 -68c-69 0 -107 25 -107 97c0 133 184 260 351 260c14 0 27 -1 40 -2zM444 811h-32l-60 80l-157 -80h-44l212 189h21z" />
    <glyph glyph-name="Idieresis" unicode="&#xcf;" horiz-adv-x="375" 
d="M397 748l-159 -748h-144l145 679c-87 -36 -140 -111 -140 -218c0 -51 13 -59 14 -68c-69 0 -107 25 -107 97c0 133 184 260 351 260c14 0 27 -1 40 -2zM347 884c0 33 27 61 61 61c33 0 61 -28 61 -61c0 -34 -28 -61 -61 -61c-34 0 -61 27 -61 61zM167 884
c0 33 27 61 61 61c33 0 61 -28 61 -61c0 -34 -28 -61 -61 -61c-34 0 -61 27 -61 61z" />
    <glyph glyph-name="Igrave" unicode="&#xcc;" horiz-adv-x="375" 
d="M397 748l-159 -748h-144l145 679c-87 -36 -140 -111 -140 -218c0 -51 13 -59 14 -68c-69 0 -107 25 -107 97c0 133 184 260 351 260c14 0 27 -1 40 -2zM289 811l-59 189h105l29 -189h-75z" />
    <glyph glyph-name="J" unicode="J" horiz-adv-x="536" 
d="M538 750h40l-150 -710c-32 -153 -99 -247 -263 -247c-95 0 -148 58 -148 141c0 68 43 134 122 134c40 0 98 -3 98 -67c0 -11 -2 -25 -6 -40c-25 21 -40 26 -60 26c-46 0 -70 -37 -70 -74c0 -52 39 -70 68 -70c45 0 72 20 95 123l157 714c-87 -36 -141 -112 -141 -219
c0 -51 13 -59 14 -68c-69 0 -107 25 -107 97c0 133 184 260 351 260z" />
    <glyph glyph-name="K" unicode="K" horiz-adv-x="601" 
d="M397 748l-66 -306c63 85 228 304 228 303h105l-279 -321c13 2 25 2 36 2c97 0 124 -46 124 -107c0 -82 -49 -190 -49 -253c0 -30 15 -57 39 -66c-42 -12 -75 -17 -99 -17c-65 0 -78 34 -78 67c0 66 53 187 53 263c0 40 -15 67 -60 67c-9 0 -20 -1 -33 -4l-80 -376h-144
l145 680c-88 -37 -140 -113 -140 -219c0 -51 13 -59 14 -68c-69 0 -107 25 -107 97c0 133 184 260 351 260c14 0 27 -1 40 -2z" />
    <glyph glyph-name="L" unicode="L" horiz-adv-x="392" 
d="M397 738l-154 -718c104 -23 208 -129 336 -129c27 0 55 4 84 16c-10 -96 -50 -157 -104 -157c-143 0 -269 227 -446 227c-8 0 -15 0 -23 -1l149 693c-87 -36 -140 -111 -140 -218c0 -51 13 -59 14 -68c-69 0 -107 25 -107 97c0 133 184 260 351 260c14 0 27 -1 40 -2z
" />
    <glyph glyph-name="M" unicode="M" horiz-adv-x="785" 
d="M650 0h-144l100 473l-190 -473h-137v427l-132 -427h-80l224 687c-100 -32 -161 -111 -161 -226c0 -51 13 -59 14 -68c-69 0 -107 25 -107 97c0 122 169 256 325 256c23 0 47 -3 69 -10v-576l219 576h157z" />
    <glyph glyph-name="M.salt" horiz-adv-x="806" 
d="M825 736l-164 -777c-91 0 -124 14 -124 80c0 21 4 39 9 60l116 552c-104 -113 -231 -422 -231 -492c0 -3 0 -6 1 -8c-75 4 -110 30 -110 95c0 73 44 194 127 389c-142 -59 -318 -492 -318 -692c0 -51 13 -47 14 -56c-69 4 -134 6 -134 112c0 189 268 752 506 752
c24 0 43 -5 67 -14c-13 -39 -48 -124 -67 -157c107 153 141 171 228 171c24 0 56 -5 80 -15z" />
    <glyph glyph-name="N" unicode="N" horiz-adv-x="702" 
d="M580 748h144l-159 -748h-144c-47 0 -58 88 -58 204c0 98 7 215 7 319c0 31 0 61 -2 89l-130 -612h-144l145 680c-88 -37 -140 -113 -140 -219c0 -51 13 -59 14 -68c-69 0 -107 25 -107 97c0 133 184 260 351 260c84 0 91 -43 91 -186c0 -105 -11 -236 -11 -333
c0 -46 3 -85 10 -109z" />
    <glyph glyph-name="Ntilde" unicode="&#xd1;" horiz-adv-x="702" 
d="M580 748h144l-159 -748h-144c-47 0 -58 88 -58 204c0 98 7 215 7 319c0 31 0 61 -2 89l-130 -612h-144l145 680c-88 -37 -140 -113 -140 -219c0 -51 13 -59 14 -68c-69 0 -107 25 -107 97c0 133 184 260 351 260c84 0 91 -45 91 -186c0 -105 -11 -236 -11 -333
c0 -46 3 -85 10 -109zM685 920l6 -1c-11 -47 -85 -100 -161 -100c-66 0 -113 37 -168 37c-26 0 -48 -9 -66 -26l-6 2c32 64 91 98 167 98c73 0 107 -33 165 -33c25 0 49 8 63 23z" />
    <glyph glyph-name="O" unicode="O" horiz-adv-x="658" 
d="M388 656c-82 -108 -135 -255 -135 -419c0 -86 24 -162 79 -162c86 0 183 238 183 425c0 110 -20 204 -146 204c-162 0 -270 -91 -270 -243c0 -51 13 -59 14 -68c-69 0 -107 25 -107 97c0 133 184 260 351 260c198 0 274 -97 274 -271c0 -195 -120 -488 -299 -488
c-128 0 -205 60 -205 226c0 187 66 447 214 447c15 0 30 -3 47 -8z" />
    <glyph glyph-name="Oacute" unicode="&#xd3;" horiz-adv-x="658" 
d="M388 656c-82 -108 -135 -255 -135 -419c0 -86 24 -162 79 -162c86 0 183 238 183 425c0 110 -20 204 -146 204c-162 0 -270 -91 -270 -243c0 -51 13 -59 14 -68c-69 0 -107 25 -107 97c0 133 184 260 351 260c198 0 274 -97 274 -271c0 -195 -120 -488 -299 -488
c-128 0 -205 60 -205 226c0 187 66 447 214 447c15 0 30 -3 47 -8zM431 811l91 189h105l-121 -189h-75z" />
    <glyph glyph-name="Ocircumflex" unicode="&#xd4;" horiz-adv-x="658" 
d="M388 656c-82 -108 -135 -255 -135 -419c0 -86 24 -162 79 -162c86 0 183 238 183 425c0 110 -20 204 -146 204c-162 0 -270 -91 -270 -243c0 -51 13 -59 14 -68c-69 0 -107 25 -107 97c0 133 184 260 351 260c198 0 274 -97 274 -271c0 -195 -120 -488 -299 -488
c-128 0 -205 60 -205 226c0 187 66 447 214 447c15 0 30 -3 47 -8zM595 811h-32l-60 80l-157 -80h-44l212 189h21z" />
    <glyph glyph-name="Odieresis" unicode="&#xd6;" horiz-adv-x="658" 
d="M388 656c-82 -108 -135 -255 -135 -419c0 -86 24 -162 79 -162c86 0 183 238 183 425c0 110 -20 204 -146 204c-162 0 -270 -91 -270 -243c0 -51 13 -59 14 -68c-69 0 -107 25 -107 97c0 133 184 260 351 260c198 0 274 -97 274 -271c0 -195 -120 -488 -299 -488
c-128 0 -205 60 -205 226c0 187 66 447 214 447c15 0 30 -3 47 -8zM308 884c0 33 27 61 61 61c33 0 61 -28 61 -61c0 -34 -28 -61 -61 -61c-34 0 -61 27 -61 61zM488 884c0 33 27 61 61 61c33 0 61 -28 61 -61c0 -34 -28 -61 -61 -61c-34 0 -61 27 -61 61z" />
    <glyph glyph-name="Ograve" unicode="&#xd2;" horiz-adv-x="658" 
d="M388 656c-82 -108 -135 -255 -135 -419c0 -86 24 -162 79 -162c86 0 183 238 183 425c0 110 -20 204 -146 204c-162 0 -270 -91 -270 -243c0 -51 13 -59 14 -68c-69 0 -107 25 -107 97c0 133 184 260 351 260c198 0 274 -97 274 -271c0 -195 -120 -488 -299 -488
c-128 0 -205 60 -205 226c0 187 66 447 214 447c15 0 30 -3 47 -8zM401 811l-59 189h105l29 -189h-75z" />
    <glyph glyph-name="Otilde" unicode="&#xd5;" horiz-adv-x="658" 
d="M388 656c-82 -108 -135 -255 -135 -419c0 -86 24 -162 79 -162c86 0 183 238 183 425c0 110 -20 204 -146 204c-162 0 -270 -91 -270 -243c0 -51 13 -59 14 -68c-69 0 -107 25 -107 97c0 133 184 260 351 260c198 0 274 -97 274 -271c0 -195 -120 -488 -299 -488
c-128 0 -205 60 -205 226c0 187 66 447 214 447c15 0 30 -3 47 -8zM633 920l6 -1c-11 -47 -85 -100 -161 -100c-66 0 -113 37 -168 37c-26 0 -48 -9 -66 -26l-6 2c32 64 91 98 167 98c73 0 107 -33 165 -33c25 0 49 8 63 23z" />
    <glyph glyph-name="P" unicode="P" horiz-adv-x="573" 
d="M230 636l148 20l-71 -334c100 8 175 140 175 246c0 74 -36 136 -124 136c-162 0 -259 -91 -259 -243c0 -51 13 -59 14 -68c-69 0 -107 25 -107 97c0 133 184 260 351 260c164 0 236 -94 236 -197c0 -127 -109 -268 -289 -268h-5l-61 -285h-144z" />
    <glyph glyph-name="Q" unicode="Q" horiz-adv-x="658" 
d="M378 656c-82 -108 -135 -254 -135 -418c0 -33 4 -64 11 -90c22 6 42 9 60 9c36 0 63 -12 84 -30c63 81 117 240 117 373c0 110 -20 204 -146 204c-162 0 -270 -91 -270 -243c0 -51 13 -59 14 -68c-69 0 -107 25 -107 97c0 133 184 260 351 260c198 0 274 -97 274 -271
c0 -142 -64 -336 -168 -431c29 -41 60 -77 121 -77c7 0 14 1 22 2c-26 -69 -60 -86 -103 -86c-83 0 -108 55 -125 111c-15 -4 -30 -7 -46 -7c-129 0 -215 62 -215 231c0 186 76 442 216 442c14 0 29 -3 45 -8zM289 120c-7 0 -15 -1 -24 -3c13 -26 31 -42 57 -42
c8 0 17 2 26 7c-12 22 -29 38 -59 38z" />
    <glyph glyph-name="R" unicode="R" horiz-adv-x="601" 
d="M230 636l148 20l-50 -232h9c83 0 142 97 142 175c0 56 -32 105 -110 105c-162 0 -270 -91 -270 -243c0 -51 13 -59 14 -68c-69 0 -107 25 -107 97c0 133 184 260 351 260c158 0 227 -78 227 -160c0 -61 -39 -131 -108 -171c52 -15 69 -53 69 -100
c0 -82 -49 -191 -49 -253c0 -30 15 -57 39 -66c-42 -12 -75 -17 -99 -17c-65 0 -78 34 -78 67c0 66 52 187 52 263c0 40 -15 68 -60 68c-9 0 -20 -1 -32 -4l-80 -377h-144z" />
    <glyph glyph-name="S" unicode="S" horiz-adv-x="570" 
d="M544 630c0 -57 -31 -101 -83 -101c-16 0 -32 6 -45 21c27 16 45 53 45 86c0 35 -20 67 -73 67c-55 0 -93 -32 -93 -87c0 -157 225 -166 225 -389c0 -141 -104 -232 -265 -232c-80 0 -221 17 -221 161c0 94 70 144 147 144c45 0 73 -15 81 -51c-81 -7 -117 -41 -117 -110
c0 -67 52 -96 99 -96c79 0 110 69 110 143c0 188 -216 229 -216 378c0 105 119 186 238 186c53 0 168 -8 168 -120z" />
    <glyph glyph-name="T" unicode="T" horiz-adv-x="481" 
d="M624 618c-53 0 -118 14 -185 26l-138 -644h-144l142 661c-112 0 -200 -32 -200 -201c0 -51 13 -59 14 -68c-69 0 -107 25 -107 97c0 133 94 260 341 260c41 0 159 -17 257 -17c46 0 88 4 115 15c-14 -42 -15 -129 -95 -129z" />
    <glyph glyph-name="U" unicode="U" horiz-adv-x="678" 
d="M557 748h143l-159 -748h-144l11 52c-33 -30 -67 -51 -97 -51c-115 0 -185 51 -185 212c0 136 52 375 159 482c-115 -27 -186 -110 -186 -234c0 -51 13 -59 14 -68c-69 0 -107 25 -107 97c0 133 184 260 351 260c34 0 57 0 75 -5c-85 -112 -179 -351 -179 -508
c0 -86 24 -162 79 -162c40 0 71 30 97 77z" />
    <glyph glyph-name="Uacute" unicode="&#xda;" horiz-adv-x="678" 
d="M557 748h143l-159 -748h-144l11 52c-33 -30 -67 -51 -97 -51c-115 0 -185 51 -185 212c0 136 52 375 159 482c-115 -27 -186 -110 -186 -234c0 -51 13 -59 14 -68c-69 0 -107 25 -107 97c0 133 184 260 351 260c35 0 57 0 75 -5c-85 -112 -179 -351 -179 -508
c0 -86 24 -162 79 -162c40 0 71 30 97 77zM431 811l91 189h105l-121 -189h-75z" />
    <glyph glyph-name="Ucircumflex" unicode="&#xdb;" horiz-adv-x="678" 
d="M557 748h143l-159 -748h-144l11 52c-33 -30 -67 -51 -97 -51c-115 0 -185 51 -185 212c0 136 52 375 159 482c-115 -27 -186 -110 -186 -234c0 -51 13 -59 14 -68c-69 0 -107 25 -107 97c0 133 184 260 351 260c34 0 57 0 75 -5c-85 -112 -179 -351 -179 -508
c0 -86 24 -162 79 -162c40 0 71 30 97 77zM635 811h-32l-60 80l-157 -80h-44l212 189h21z" />
    <glyph glyph-name="Udieresis" unicode="&#xdc;" horiz-adv-x="678" 
d="M557 748h143l-159 -748h-144l11 52c-33 -30 -67 -51 -97 -51c-115 0 -185 51 -185 212c0 136 52 375 159 482c-115 -27 -186 -110 -186 -234c0 -51 13 -59 14 -68c-69 0 -107 25 -107 97c0 133 184 260 351 260c34 0 57 0 75 -5c-85 -112 -179 -351 -179 -508
c0 -86 24 -162 79 -162c40 0 71 30 97 77zM378 884c0 33 27 61 61 61c33 0 61 -28 61 -61c0 -34 -28 -61 -61 -61c-34 0 -61 27 -61 61zM558 884c0 33 27 61 61 61c33 0 61 -28 61 -61c0 -34 -28 -61 -61 -61c-34 0 -61 27 -61 61z" />
    <glyph glyph-name="Ugrave" unicode="&#xd9;" horiz-adv-x="678" 
d="M557 748h143l-159 -748h-144l11 52c-33 -30 -67 -51 -97 -51c-115 0 -185 51 -185 212c0 136 52 375 159 482c-115 -27 -186 -110 -186 -234c0 -51 13 -59 14 -68c-69 0 -107 25 -107 97c0 133 184 260 351 260c35 0 57 0 75 -5c-85 -112 -179 -351 -179 -508
c0 -86 24 -162 79 -162c40 0 71 30 97 77zM451 811l-59 189h105l29 -189h-75z" />
    <glyph glyph-name="V" unicode="V" horiz-adv-x="615" 
d="M397 748l9 -615l210 612h70l-278 -745h-144v683c-109 -34 -165 -112 -165 -222c0 -51 13 -59 14 -68c-69 0 -107 25 -107 97c0 133 184 260 351 260c14 0 27 -1 40 -2z" />
    <glyph glyph-name="W" unicode="W" horiz-adv-x="970" 
d="M397 748l9 -615l210 612h127v-612l219 612h70l-278 -745h-144v509l-202 -509h-144v683c-109 -34 -165 -112 -165 -222c0 -51 13 -59 14 -68c-69 0 -107 25 -107 97c0 133 184 260 351 260c14 0 27 -1 40 -2z" />
    <glyph glyph-name="W.salt" horiz-adv-x="743" 
d="M21 0l158 749c87 0 123 -13 123 -75c0 -17 -3 -39 -8 -65l-104 -494c100 79 208 287 208 440c64 0 87 -62 87 -142c0 -111 -44 -257 -85 -323c142 59 227 409 245 603v5c0 45 -13 43 -14 51c69 -4 134 -6 134 -112c0 -189 -180 -652 -418 -652c-24 0 -23 5 -47 14
c20 78 49 125 69 218c-61 -102 -156 -232 -243 -232c-24 0 -81 6 -105 15z" />
    <glyph glyph-name="X" unicode="X" horiz-adv-x="620" 
d="M552 0h-159l-53 250l-145 -250h-61l188 332l-74 351c-93 -34 -149 -112 -149 -222c0 -51 13 -59 14 -68c-69 0 -107 25 -107 97c0 133 184 260 351 260c14 0 27 -1 40 -2l43 -208l116 205h70l-168 -291z" />
    <glyph glyph-name="Y" unicode="Y" horiz-adv-x="620" 
d="M438 0h-160l66 308l-96 375c-93 -34 -149 -112 -149 -222c0 -51 13 -59 14 -68c-69 0 -107 25 -107 97c0 133 184 260 351 260c14 0 27 -1 40 -2l87 -358l148 355h66l-194 -437z" />
    <glyph glyph-name="Yacute" unicode="&#xdd;" horiz-adv-x="620" 
d="M438 0h-160l66 308l-96 375c-93 -34 -149 -112 -149 -222c0 -51 13 -59 14 -68c-69 0 -107 25 -107 97c0 133 184 260 351 260c14 0 27 -1 40 -2l87 -358l148 355h66l-194 -437zM467 811l91 189h105l-121 -189h-75z" />
    <glyph glyph-name="Z" unicode="Z" horiz-adv-x="530" 
d="M404 78c-9 0 -18 11 -18 28c0 47 32 61 64 61c28 0 47 -26 47 -58c0 -51 -45 -109 -125 -109h-361l356 708c-23 1 -77 2 -100 2c-31 0 -82 -4 -82 -22c9 0 17 -12 17 -29c0 -47 -31 -60 -63 -60c-28 0 -47 26 -47 58c0 51 37 93 117 93h343l-348 -692
c23 -1 121 -2 145 -2c31 0 55 4 55 22z" />
    <glyph glyph-name="a" unicode="a" 
d="M317 500h144l-72 -340c-2 -11 -4 -22 -4 -31c0 -22 10 -38 50 -38s92 56 132 88h34c-46 -46 -159 -179 -237 -179c-65 0 -109 24 -122 76c-30 -41 -75 -82 -136 -82c-96 0 -124 68 -124 127c0 172 62 378 262 378c24 0 49 -10 67 -25zM252 443c-75 0 -135 -159 -135 -295
c0 -60 33 -71 58 -71c23 0 45 22 64 50c1 10 3 21 6 33l56 265c-16 14 -35 18 -49 18z" />
    <glyph glyph-name="a.fina" horiz-adv-x="479" 
d="M460 500l-72 -340c-3 -12 -5 -23 -5 -34c0 -21 8 -37 36 -37c7 0 18 0 26 3c-28 -86 -70 -92 -104 -92c-58 0 -89 30 -99 76c-30 -41 -75 -82 -136 -82c-96 0 -124 68 -124 127c0 172 62 378 262 378c24 0 49 -10 67 -25l6 26h143zM245 160l56 265c-16 14 -35 18 -49 18
c-75 0 -135 -159 -135 -295c0 -60 33 -71 58 -71c23 0 45 23 65 51c0 10 2 21 5 32z" />
    <glyph glyph-name="a_s.fina" horiz-adv-x="840" 
d="M317 500h143l-71 -340c-3 -15 -5 -27 -5 -37c0 -21 8 -32 31 -32c11 0 26 14 42 37c0 82 36 128 76 131c34 65 54 153 71 229l145 30v-14c0 -165 73 -213 73 -330c0 -93 -59 -174 -194 -174c-92 0 -146 21 -164 79c-36 -46 -72 -79 -101 -79c-70 0 -108 30 -120 78
c-30 -42 -75 -84 -137 -84c-96 0 -124 68 -124 127c0 172 62 378 262 378c24 0 49 -10 67 -25zM245 160l56 265c-16 14 -35 18 -49 18c-75 0 -135 -159 -135 -295c0 -60 33 -71 58 -71c23 0 45 23 65 51c0 10 2 21 5 32zM610 199c-1 -38 -31 -64 -66 -64c-12 0 -23 3 -35 8
c-1 -5 -2 -11 -2 -16c0 -43 47 -68 86 -68c34 0 83 42 83 119c0 62 -45 115 -47 240c-16 -49 -30 -113 -52 -163c24 -8 33 -26 33 -56z" />
    <glyph glyph-name="aacute" unicode="&#xe1;" horiz-adv-x="489" 
d="M317 500h144l-72 -340c-2 -11 -4 -22 -4 -31c0 -22 10 -38 50 -38s92 56 132 88h34c-46 -46 -159 -179 -237 -179c-65 0 -109 24 -122 76c-30 -41 -75 -82 -136 -82c-96 0 -124 68 -124 127c0 172 62 378 262 378c24 0 49 -10 67 -25zM252 443c-75 0 -135 -159 -135 -295
c0 -60 33 -71 58 -71c23 0 45 22 64 50c1 10 3 21 6 33l56 265c-16 14 -35 18 -49 18zM247 561l91 189h105l-121 -189h-75z" />
    <glyph glyph-name="aacute.fina" horiz-adv-x="489" 
d="M460 500l-72 -340c-3 -12 -5 -23 -5 -34c0 -21 8 -37 36 -37c7 0 18 0 26 3c-28 -86 -70 -92 -104 -92c-58 0 -89 30 -99 76c-30 -41 -75 -82 -136 -82c-96 0 -124 68 -124 127c0 172 62 378 262 378c24 0 49 -10 67 -25l6 26h143zM245 160l56 265c-16 14 -35 18 -49 18
c-75 0 -135 -159 -135 -295c0 -60 33 -71 58 -71c23 0 45 23 65 51c0 10 2 21 5 32zM242 561l91 189h105l-121 -189h-75z" />
    <glyph glyph-name="aacute.old" horiz-adv-x="201" 
d="M83 561l61 189h105l-91 -189h-75z" />
    <glyph glyph-name="aacute_s.fina" horiz-adv-x="841" 
d="M317 500h143l-71 -340c-3 -15 -5 -27 -5 -37c0 -21 8 -32 31 -32c11 0 26 14 42 37c0 82 36 128 76 131c34 65 54 153 71 229l145 30v-14c0 -165 73 -213 73 -330c0 -93 -59 -174 -194 -174c-92 0 -146 21 -164 79c-36 -46 -72 -79 -101 -79c-70 0 -108 30 -120 78
c-30 -42 -75 -84 -137 -84c-96 0 -124 68 -124 127c0 172 62 378 262 378c24 0 49 -10 67 -25zM245 160l56 265c-16 14 -35 18 -49 18c-75 0 -135 -159 -135 -295c0 -60 33 -71 58 -71c23 0 45 23 65 51c0 10 2 21 5 32zM610 199c-1 -38 -31 -64 -66 -64c-12 0 -23 3 -35 8
c-1 -5 -2 -11 -2 -16c0 -43 47 -68 86 -68c34 0 83 42 83 119c0 62 -45 115 -47 240c-16 -49 -30 -113 -52 -163c24 -8 33 -26 33 -56zM242 561l91 189h105l-121 -189h-75z" />
    <glyph glyph-name="acircumflex" unicode="&#xe2;" 
d="M317 500h144l-72 -340c-2 -11 -4 -22 -4 -31c0 -22 10 -38 50 -38s92 56 132 88h34c-46 -46 -159 -179 -237 -179c-65 0 -109 24 -122 76c-30 -41 -75 -82 -136 -82c-96 0 -124 68 -124 127c0 172 62 378 262 378c24 0 49 -10 67 -25zM252 443c-75 0 -135 -159 -135 -295
c0 -60 33 -71 58 -71c23 0 45 22 64 50c1 10 3 21 6 33l56 265c-16 14 -35 18 -49 18zM442 561h-32l-60 80l-157 -80h-44l212 189h21z" />
    <glyph glyph-name="acute" unicode="&#xb4;" horiz-adv-x="201" 
d="M83 561l91 189h105l-121 -189h-75z" />
    <glyph glyph-name="adieresis" unicode="&#xe4;" 
d="M317 500h144l-72 -340c-2 -11 -4 -22 -4 -31c0 -22 10 -38 50 -38s92 56 132 88h34c-46 -46 -159 -179 -237 -179c-65 0 -109 24 -122 76c-30 -41 -75 -82 -136 -82c-96 0 -124 68 -124 127c0 172 62 378 262 378c24 0 49 -10 67 -25zM252 443c-75 0 -135 -159 -135 -295
c0 -60 33 -71 58 -71c23 0 45 22 64 50c1 10 3 21 6 33l56 265c-16 14 -35 18 -49 18zM146 634c0 33 27 61 61 61c33 0 61 -28 61 -61c0 -34 -28 -61 -61 -61c-34 0 -61 27 -61 61zM326 634c0 33 27 61 61 61c33 0 61 -28 61 -61c0 -34 -28 -61 -61 -61c-34 0 -61 27 -61 61
z" />
    <glyph glyph-name="ae" unicode="&#xe6;" horiz-adv-x="625" 
d="M106 -6c-96 0 -124 68 -124 127c0 172 62 378 262 378c43 0 90 -33 91 -66c36 45 85 76 153 76c82 0 128 -34 128 -104c0 -122 -131 -192 -226 -204c-2 -16 -3 -31 -3 -43c0 -66 43 -86 82 -86c49 0 133 58 168 132h45c-57 -103 -153 -204 -282 -204
c-74 0 -122 43 -140 102c-29 -47 -79 -108 -154 -108zM252 443c-75 0 -135 -159 -135 -295c0 -60 33 -71 58 -71c28 0 54 34 77 70v12c0 71 17 173 64 248c-17 29 -45 36 -64 36zM556 400c0 21 -5 56 -35 56c-56 0 -102 -113 -123 -207c92 1 157 80 158 151z" />
    <glyph glyph-name="agrave" unicode="&#xe0;" 
d="M317 500h144l-72 -340c-2 -11 -4 -22 -4 -31c0 -22 10 -38 50 -38s92 56 132 88h34c-46 -46 -159 -179 -237 -179c-65 0 -109 24 -122 76c-30 -41 -75 -82 -136 -82c-96 0 -124 68 -124 127c0 172 62 378 262 378c24 0 49 -10 67 -25zM252 443c-75 0 -135 -159 -135 -295
c0 -60 33 -71 58 -71c23 0 45 22 64 50c1 10 3 21 6 33l56 265c-16 14 -35 18 -49 18zM243 561l-59 189h105l29 -189h-75z" />
    <glyph glyph-name="aring" unicode="&#xe5;" 
d="M317 500h144l-72 -340c-2 -11 -4 -22 -4 -31c0 -22 10 -38 50 -38s92 56 132 88h34c-46 -46 -159 -179 -237 -179c-65 0 -109 24 -122 76c-30 -41 -75 -82 -136 -82c-96 0 -124 68 -124 127c0 172 62 378 262 378c24 0 49 -10 67 -25zM252 443c-75 0 -135 -159 -135 -295
c0 -60 33 -71 58 -71c23 0 45 22 64 50c1 10 3 21 6 33l56 265c-16 14 -35 18 -49 18zM324 718c49 0 72 -34 72 -77c0 -44 -25 -84 -87 -84c-43 0 -70 32 -70 70c0 36 25 91 85 91zM359 638c0 19 -1 47 -33 47c-35 0 -47 -31 -47 -56c0 -22 10 -37 34 -37c31 0 46 18 46 46z
" />
    <glyph glyph-name="asciicircum" unicode="^" horiz-adv-x="421" 
d="M343 561h-32l-60 80l-157 -80h-44l212 189h21z" />
    <glyph glyph-name="at" unicode="@" horiz-adv-x="562" 
d="M394 99c10 -8 13 -14 13 -17c0 -5 -3 -8 -5 -11c-53 -80 -153 -109 -229 -109c-86 0 -181 53 -181 190c0 283 209 405 320 405c80 0 179 -19 179 -145c0 -150 -85 -276 -172 -276c-16 0 -26 3 -34 8c-13 -12 -45 -23 -78 -23c-32 0 -53 45 -53 78c0 46 43 233 136 233
c13 0 26 -7 33 -17l4 15l56 -6l-45 -192c-2 -8 -4 -16 -4 -23c0 -13 5 -19 13 -19c41 0 77 169 77 222c0 46 -15 81 -100 81c-112 0 -222 -143 -222 -330c0 -65 36 -111 102 -111c62 0 112 15 143 46c6 6 15 13 23 13c7 0 19 -8 24 -12zM270 185v10c0 6 0 13 3 21l42 167
c-6 6 -15 7 -21 7c-46 0 -75 -125 -75 -178c0 -23 4 -32 36 -32c5 0 10 2 15 5z" />
    <glyph glyph-name="atilde" unicode="&#xe3;" 
d="M317 500h144l-72 -340c-2 -11 -4 -22 -4 -31c0 -22 10 -38 50 -38s92 56 132 88h34c-46 -46 -159 -179 -237 -179c-65 0 -109 24 -122 76c-30 -41 -75 -82 -136 -82c-96 0 -124 68 -124 127c0 172 62 378 262 378c24 0 49 -10 67 -25zM252 443c-75 0 -135 -159 -135 -295
c0 -60 33 -71 58 -71c23 0 45 22 64 50c1 10 3 21 6 33l56 265c-16 14 -35 18 -49 18zM480 670l6 -1c-11 -47 -85 -100 -161 -100c-66 0 -113 37 -168 37c-26 0 -48 -9 -66 -26l-6 2c32 64 91 98 167 98c73 0 107 -33 165 -33c25 0 49 8 63 23z" />
    <glyph glyph-name="b" unicode="b" horiz-adv-x="430" 
d="M99 680l148 20l-48 -227c23 17 53 29 86 29c96 0 127 -68 127 -127c0 -157 -86 -378 -265 -378c-99 0 -165 28 -165 114c0 14 2 31 6 49zM300 368c0 60 -32 74 -57 74c-10 0 -45 -7 -54 -14l-57 -268c-5 -24 -8 -42 -8 -55c0 -30 14 -37 44 -37c82 0 132 228 132 300z
" />
    <glyph glyph-name="b_s.fina" horiz-adv-x="770" 
d="M99 680l148 20l-48 -227c23 17 53 29 86 29c96 0 127 -68 127 -127c0 -20 -2 -41 -4 -62c45 35 93 87 140 170l135 30v-18c0 -162 64 -205 64 -321c0 -93 -46 -174 -181 -174c-97 0 -156 29 -156 111c0 114 78 148 105 148c38 0 52 -20 52 -60c0 -38 -34 -71 -71 -71
c-12 0 -24 3 -35 12c-2 -7 -3 -14 -3 -20c0 -38 29 -61 78 -61c34 0 77 42 77 118c0 62 -38 116 -40 241c-40 -56 -113 -126 -178 -173c-34 -127 -115 -248 -248 -248c-99 0 -165 28 -165 114c0 14 2 31 6 49zM300 368c0 60 -32 74 -57 74c-10 0 -45 -7 -54 -14l-57 -268
c-5 -24 -8 -42 -8 -55c0 -30 14 -37 44 -37c50 0 89 87 111 170c-9 8 -13 20 -13 32c0 24 12 49 31 63c2 14 3 26 3 35z" />
    <glyph glyph-name="c" unicode="c" horiz-adv-x="360" 
d="M292 401c3 11 5 20 5 28c0 24 -15 34 -37 34c-84 0 -138 -163 -138 -271c0 -59 12 -107 73 -107c71 0 128 42 174 94h34c-48 -54 -102 -179 -279 -179c-83 0 -137 46 -137 164c0 146 63 339 257 339c54 0 110 -14 110 -69c0 -11 -1 -20 -5 -33c-5 3 -13 6 -25 6
c-9 0 -19 -2 -32 -6z" />
    <glyph glyph-name="c.fina" horiz-adv-x="360" 
d="M134 0c-83 0 -147 46 -147 164c0 146 63 339 257 339c54 0 110 -14 110 -69c0 -11 -1 -20 -5 -33h-57c3 11 5 20 5 28c0 24 -15 34 -37 34c-84 0 -138 -163 -138 -271c0 -49 11 -107 72 -107c54 0 101 25 140 59c0 -87 -74 -144 -200 -144z" />
    <glyph glyph-name="c.salt" horiz-adv-x="360" 
d="M277 332c-29 0 -48 21 -48 45c0 34 25 73 62 74c-7 8 -18 12 -31 12c-84 0 -138 -163 -138 -271c0 -59 12 -107 73 -107c71 0 128 42 174 94h34c-48 -54 -102 -179 -279 -179c-83 0 -137 46 -137 164c0 146 63 339 257 339c54 0 110 -14 110 -69c0 -52 -28 -102 -77 -102
z" />
    <glyph glyph-name="ccedilla" unicode="&#xe7;" horiz-adv-x="360" 
d="M93 -119l43 119c-110 0 -149 72 -149 164c0 146 63 339 257 339c54 0 110 -14 110 -69c0 -11 -1 -20 -5 -33c-5 3 -13 6 -25 6c-9 0 -19 -2 -32 -6c3 11 5 20 5 28c0 24 -15 34 -37 34c-84 0 -138 -163 -138 -271c0 -59 12 -107 73 -107c71 0 128 42 174 94h34
c-63 -98 -149 -173 -224 -179l-27 -66c20 5 38 8 53 8c42 0 62 -19 62 -50c0 -72 -62 -110 -120 -110c-51 0 -78 13 -107 28c9 16 21 32 40 32c41 0 46 -27 74 -27c17 0 30 22 30 42c0 19 -11 36 -39 36c-26 0 -41 -7 -52 -12z" />
    <glyph glyph-name="cedilla" unicode="&#xb8;" horiz-adv-x="833" 
d="M300 -108c0 -72 -62 -110 -120 -110c-51 0 -78 13 -107 28c9 16 21 32 40 32c41 0 46 -27 74 -27c17 0 30 21 30 42c0 18 -11 36 -39 36c-26 0 -41 -7 -52 -12l53 148l35 -23l-29 -72c20 5 38 8 53 8c42 0 62 -19 62 -50z" />
    <glyph glyph-name="circunflex" horiz-adv-x="421" 
d="M343 561h-32l-60 80l-157 -80h-44l212 189h21z" />
    <glyph glyph-name="colon" unicode=":" horiz-adv-x="267" 
d="M41 135c0 44 35 80 79 80s80 -36 80 -80s-36 -79 -80 -79s-79 35 -79 79zM91 375c0 44 35 80 79 80s80 -36 80 -80s-36 -79 -80 -79s-79 35 -79 79z" />
    <glyph glyph-name="comma" unicode="," horiz-adv-x="216" 
d="M24 75c0 44 35 80 79 80s68 -32 68 -76c0 -60 -48 -148 -130 -205c-7 5 -9 11 -9 17c0 36 52 54 52 91c0 7 -4 14 -13 20c-26 17 -47 40 -47 73z" />
    <glyph glyph-name="d" unicode="d" horiz-adv-x="510" 
d="M355 680l148 20l-114 -540c-2 -11 -5 -22 -5 -32c0 -22 11 -37 50 -37c40 0 92 56 132 88h34c-46 -46 -159 -179 -237 -179c-65 0 -108 24 -121 76c-30 -41 -75 -82 -136 -82c-96 0 -124 68 -124 127c0 172 62 378 262 378c24 0 49 -10 67 -25zM252 443
c-75 0 -135 -159 -135 -295c0 -60 33 -71 58 -71c23 0 45 22 64 50c1 10 3 21 6 33l56 265c-16 14 -35 18 -49 18z" />
    <glyph glyph-name="d.fina" horiz-adv-x="468" 
d="M502 700l-115 -540c-3 -12 -5 -23 -5 -34c0 -21 8 -37 36 -37c7 0 18 0 26 3c-28 -86 -70 -92 -104 -92c-58 0 -89 30 -99 75c-30 -41 -75 -81 -135 -81c-96 0 -124 68 -124 127c0 172 62 378 262 378c24 0 49 -11 67 -25l44 206zM252 443c-75 0 -135 -159 -135 -295
c0 -60 33 -71 58 -71c23 0 44 22 63 49c1 11 3 22 6 34l57 266c-16 13 -35 17 -49 17z" />
    <glyph glyph-name="dieresis" unicode="&#xa8;" horiz-adv-x="392" 
d="M56 634c0 33 27 61 61 61c33 0 61 -28 61 -61c0 -34 -28 -61 -61 -61c-34 0 -61 27 -61 61zM236 634c0 33 27 61 61 61c33 0 61 -28 61 -61c0 -34 -28 -61 -61 -61c-34 0 -61 27 -61 61z" />
    <glyph glyph-name="dotlessi" unicode="&#x131;" horiz-adv-x="276" 
d="M71 500h145l-72 -340c-3 -11 -5 -22 -5 -32c0 -22 11 -37 50 -37c40 0 92 56 132 88h34c-46 -46 -159 -179 -237 -179s-124 34 -124 109c0 16 2 32 6 51z" />
    <glyph glyph-name="dotlessi.fina" horiz-adv-x="249" 
d="M218 500l-72 -340c-3 -12 -5 -23 -5 -34c0 -21 8 -37 36 -37c7 0 18 0 26 3c-28 -86 -70 -92 -104 -92c-71 0 -102 47 -102 110c0 16 2 33 6 50l72 340h143z" />
    <glyph glyph-name="e" unicode="e" horiz-adv-x="355" 
d="M117 158c0 -66 43 -86 82 -86c49 0 133 58 168 132h45c-57 -103 -153 -204 -282 -204c-96 0 -148 73 -148 159c0 127 54 350 236 350c82 0 128 -34 128 -104c0 -122 -131 -192 -226 -204c-2 -16 -3 -31 -3 -43zM286 400c0 21 -5 56 -35 56c-56 0 -102 -113 -123 -207
c92 1 157 80 158 151z" />
    <glyph glyph-name="e.fina" horiz-adv-x="356" 
d="M122 0c-96 0 -148 73 -148 159c0 127 54 350 236 350c82 0 128 -34 128 -104c0 -122 -131 -192 -226 -204c-2 -16 -3 -31 -3 -43c0 -66 33 -86 72 -86c47 0 87 27 128 64c0 -108 -87 -136 -187 -136zM278 400c0 21 -5 56 -35 56c-56 0 -102 -113 -123 -207
c92 1 157 80 158 151z" />
    <glyph glyph-name="e_s.fina" horiz-adv-x="677" 
d="M117 158c0 -66 43 -86 82 -86c38 0 72 27 102 75c5 69 38 109 76 112c34 65 54 153 71 229l145 30v-14c0 -165 73 -213 73 -330c0 -93 -59 -174 -194 -174c-97 0 -151 23 -167 88c-41 -52 -93 -88 -175 -88c-96 0 -148 73 -148 159c0 127 54 350 236 350
c82 0 128 -34 128 -104c0 -122 -131 -192 -226 -204c-2 -16 -3 -31 -3 -43zM454 199c-1 -38 -31 -64 -66 -64c-12 0 -24 3 -36 9c0 -59 32 -85 85 -85c34 0 83 42 83 119c0 62 -45 115 -47 240c-16 -49 -30 -113 -52 -163c24 -8 33 -26 33 -56zM286 400c0 21 -5 56 -35 56
c-56 0 -102 -113 -123 -207c92 1 157 80 158 151z" />
    <glyph glyph-name="e_x.fina" horiz-adv-x="722" 
d="M613 -26c-80 0 -99 36 -132 155l-7 25c-102 -85 -224 -153 -339 -153c-96 0 -148 72 -148 158c0 127 54 350 236 350c82 0 128 -34 128 -104c0 -122 -131 -192 -226 -204c-2 -16 -3 -31 -3 -43c0 -66 43 -85 82 -85c75 0 172 60 256 134l-79 293h145l46 -178
c41 50 69 95 74 123c-6 -1 -12 -2 -17 -2c-34 0 -47 25 -47 56c0 34 31 49 68 49c31 0 60 -24 60 -70c0 -44 -37 -118 -123 -215l35 -134c14 -54 38 -92 64 -92c5 0 10 1 15 4c-15 -49 -46 -67 -88 -67zM291 400c0 21 -5 56 -35 56c-56 0 -102 -113 -123 -207
c92 1 157 80 158 151z" />
    <glyph glyph-name="eacute" unicode="&#xe9;" horiz-adv-x="362" 
d="M117 158c0 -66 43 -86 82 -86c49 0 133 58 168 132h45c-57 -103 -153 -204 -282 -204c-96 0 -148 73 -148 159c0 127 54 350 236 350c82 0 128 -34 128 -104c0 -122 -131 -192 -226 -204c-2 -16 -3 -31 -3 -43zM286 400c0 21 -5 56 -35 56c-56 0 -102 -113 -123 -207
c92 1 157 80 158 151zM204 561l91 189h105l-121 -189h-75z" />
    <glyph glyph-name="eacute.fina" horiz-adv-x="370" 
d="M114 0c-96 0 -148 73 -148 159c0 127 54 350 236 350c82 0 128 -34 128 -104c0 -122 -131 -192 -226 -204c-2 -16 -3 -31 -3 -43c0 -66 33 -86 72 -86c47 0 87 27 128 64c0 -108 -87 -136 -187 -136zM270 400c0 21 -5 56 -35 56c-56 0 -102 -113 -123 -207
c92 1 157 80 158 151zM215 561l91 189h105l-121 -189h-75z" />
    <glyph glyph-name="eacute_s.fina" horiz-adv-x="681" 
d="M117 158c0 -66 43 -86 82 -86c36 0 69 25 98 68c3 74 37 116 76 119c34 65 54 153 71 229l145 30v-14c0 -165 73 -213 73 -330c0 -93 -59 -174 -194 -174c-95 0 -150 22 -166 84c-41 -50 -92 -84 -172 -84c-96 0 -148 73 -148 159c0 127 54 350 236 350
c82 0 128 -34 128 -104c0 -122 -131 -192 -226 -204c-2 -16 -3 -31 -3 -43zM450 199c-1 -38 -31 -64 -66 -64c-12 0 -24 3 -36 9c0 -59 32 -85 85 -85c34 0 83 42 83 119c0 62 -45 115 -47 240c-16 -49 -30 -113 -52 -163c24 -8 33 -26 33 -56zM286 400c0 21 -5 56 -35 56
c-56 0 -102 -113 -123 -207c92 1 157 80 158 151zM242 561l91 189h105l-121 -189h-75z" />
    <glyph glyph-name="ecircumflex" unicode="&#xea;" horiz-adv-x="355" 
d="M117 158c0 -66 43 -86 82 -86c49 0 133 58 168 132h45c-57 -103 -153 -204 -282 -204c-96 0 -148 73 -148 159c0 127 54 350 236 350c82 0 128 -34 128 -104c0 -122 -131 -192 -226 -204c-2 -16 -3 -31 -3 -43zM374 561h-32l-60 80l-157 -80h-44l212 189h21zM286 400
c0 21 -5 56 -35 56c-56 0 -102 -113 -123 -207c92 1 157 80 158 151z" />
    <glyph glyph-name="edieresis" unicode="&#xeb;" horiz-adv-x="355" 
d="M117 158c0 -66 43 -86 82 -86c49 0 133 58 168 132h45c-57 -103 -153 -204 -282 -204c-96 0 -148 73 -148 159c0 127 54 350 236 350c82 0 128 -34 128 -104c0 -122 -131 -192 -226 -204c-2 -16 -3 -31 -3 -43zM286 400c0 21 -5 56 -35 56c-56 0 -102 -113 -123 -207
c92 1 157 80 158 151zM72 634c0 33 27 61 61 61c33 0 61 -28 61 -61c0 -34 -28 -61 -61 -61c-34 0 -61 27 -61 61zM252 634c0 33 27 61 61 61c33 0 61 -28 61 -61c0 -34 -28 -61 -61 -61c-34 0 -61 27 -61 61z" />
    <glyph glyph-name="egrave" unicode="&#xe8;" horiz-adv-x="355" 
d="M117 158c0 -66 43 -86 82 -86c49 0 133 58 168 132h45c-57 -103 -153 -204 -282 -204c-96 0 -148 73 -148 159c0 127 54 350 236 350c82 0 128 -34 128 -104c0 -122 -131 -192 -226 -204c-2 -16 -3 -31 -3 -43zM286 400c0 21 -5 56 -35 56c-56 0 -102 -113 -123 -207
c92 1 157 80 158 151zM169 561l-59 189h105l29 -189h-75z" />
    <glyph glyph-name="ellipsis" unicode="&#x2026;" horiz-adv-x="702" 
d="M31 75c0 44 35 80 79 80s80 -36 80 -80s-36 -79 -80 -79s-79 35 -79 79zM266 75c0 44 35 80 79 80s80 -36 80 -80s-36 -79 -80 -79s-79 35 -79 79zM511 75c0 44 35 80 79 80s80 -36 80 -80s-36 -79 -80 -79s-79 35 -79 79z" />
    <glyph glyph-name="exclam" unicode="!" horiz-adv-x="224" 
d="M150 231h-85l71 469h144zM160 80c0 -44 -35 -80 -79 -80s-80 36 -80 80s36 79 80 79s79 -35 79 -79z" />
    <glyph glyph-name="exclamdown" unicode="&#xa1;" horiz-adv-x="219" 
d="M69 221h85l-71 -469h-144zM59 372c0 44 35 80 79 80s80 -36 80 -80s-36 -79 -80 -79s-79 35 -79 79z" />
    <glyph glyph-name="f" unicode="f" horiz-adv-x="271" 
d="M388 600h-47c1 10 2 18 2 27c0 23 -18 34 -38 34c-22 0 -56 -15 -70 -82l-17 -79h73l-7 -40h-74l-115 -540c-31 -143 -114 -170 -179 -170c-61 0 -118 43 -118 108c0 92 77 121 172 150l121 571c30 143 116 170 182 170c61 0 118 -43 118 -108c0 -16 -1 -29 -3 -41z
M-147 -128c0 -14 18 -33 40 -33c21 0 44 19 57 78l13 58c-63 -21 -110 -49 -110 -103z" />
    <glyph glyph-name="f_i.fina" horiz-adv-x="537" 
d="M-146 -128c0 -14 18 -33 40 -33c20 0 47 19 59 78l12 58c-63 -21 -111 -49 -111 -103zM499 500l-72 -340c-3 -12 -5 -23 -5 -34c0 -21 8 -37 36 -37c7 0 18 0 26 3c-28 -86 -70 -92 -104 -92c-71 0 -102 47 -102 110c0 16 2 33 6 50l72 340h143zM444 553
c-41 0 -68 11 -68 54c0 26 12 51 30 51c2 0 6 0 9 -1c-1 26 -26 34 -54 34c-63 0 -111 -53 -123 -109l-17 -82h101l-8 -40h-101l-114 -540c-30 -143 -116 -170 -182 -170c-61 0 -118 43 -118 108c0 92 78 121 173 150l120 571c30 143 154 170 220 170c90 0 203 -14 203 -122
c0 -45 -39 -74 -71 -74z" />
    <glyph glyph-name="f_l.fina" horiz-adv-x="568" 
d="M-138 -128c0 -14 18 -33 40 -33c20 0 47 19 59 78l12 58c-63 -21 -111 -49 -111 -103zM547 680l-111 -520c-3 -12 -5 -23 -5 -34c0 -21 8 -37 36 -37c7 0 18 0 26 3c-28 -86 -70 -92 -104 -92c-71 0 -102 47 -102 110c0 16 2 33 6 50l108 510c-26 11 -69 16 -82 16
c-22 0 -54 -12 -68 -79l-22 -107h93l-8 -40h-93l-114 -540c-30 -143 -116 -170 -182 -170c-61 0 -118 43 -118 108c0 92 78 121 173 150l120 571c30 143 117 170 182 170c90 0 175 -33 265 -69z" />
    <glyph glyph-name="f_u.fina" horiz-adv-x="786" 
d="M757 500l-72 -340c-3 -12 -5 -23 -5 -34c0 -21 8 -37 36 -37c7 0 18 0 26 3c-28 -86 -70 -92 -104 -92c-62 0 -92 34 -100 84c-47 -44 -100 -84 -143 -84c-78 0 -124 34 -124 109c0 16 2 32 6 51l59 288h-127l-111 -528c-30 -143 -116 -170 -182 -170
c-61 0 -118 43 -118 108c0 92 78 121 173 150l120 571c30 143 116 170 182 170c61 0 118 -43 118 -108c0 -16 -1 -29 -3 -41h-47c1 10 2 18 2 27c0 23 -18 34 -38 34c-22 0 -53 -12 -68 -79l-18 -82h275l-73 -340c-3 -11 -5 -22 -5 -32c0 -22 11 -37 50 -37
c21 0 46 16 71 36c0 10 2 21 5 33l72 340h143zM-147 -128c0 -14 18 -33 40 -33c20 0 47 19 59 78l12 58c-63 -21 -111 -49 -111 -103z" />
    <glyph glyph-name="g" unicode="g" horiz-adv-x="495" 
d="M312 500h144l-94 -443c64 33 121 78 154 153l-4 -79c-13 -65 -83 -102 -162 -131l-17 -80c-30 -143 -114 -170 -180 -170c-61 0 -112 32 -112 97c0 82 73 115 163 148l10 45c-30 -27 -69 -48 -115 -48c-96 0 -124 81 -124 140c0 138 53 367 247 367c36 0 65 -20 79 -47z
M233 443c-97 0 -135 -206 -135 -292c0 -48 29 -63 73 -63c20 0 41 15 60 35l59 277c-16 30 -40 43 -57 43zM96 -139c0 -14 12 -33 34 -33c20 0 46 30 58 89l6 30c-57 -22 -98 -47 -98 -86z" />
    <glyph glyph-name="g.fina" horiz-adv-x="471" 
d="M99 -6c-96 0 -124 68 -124 127c0 138 53 378 247 378c36 0 65 -21 80 -47l10 48h145l-122 -580c-30 -143 -116 -170 -182 -170c-61 0 -118 43 -118 108c0 91 74 106 167 124l12 54c-30 -24 -69 -42 -115 -42zM233 443c-97 0 -135 -217 -135 -303c0 -48 29 -63 73 -63
c19 0 39 14 58 33l62 290c-16 30 -41 43 -58 43zM90 -128c0 -14 18 -33 40 -33c21 0 46 19 59 78l7 33c-63 -11 -106 -24 -106 -78z" />
    <glyph glyph-name="grave" unicode="`" horiz-adv-x="201" 
d="M83 561l-59 189h105l29 -189h-75z" />
    <glyph glyph-name="h" unicode="h" horiz-adv-x="515" 
d="M438 351l-41 -191c-3 -12 -5 -23 -5 -32c0 -22 11 -37 50 -37c40 0 92 56 132 88h34c-46 -46 -159 -179 -237 -179s-124 34 -124 109c0 16 2 32 6 51l38 180c2 9 3 18 3 26c0 36 -19 59 -46 59c-24 0 -42 -7 -62 -21l-86 -404h-144l145 680l148 20l-54 -253
c41 29 87 53 130 53c54 0 115 -58 115 -125c0 -8 0 -16 -2 -24z" />
    <glyph glyph-name="h.fina" horiz-adv-x="487" 
d="M454 92c-28 -86 -70 -92 -104 -92c-71 0 -102 47 -102 110c0 16 2 33 6 50l38 180c1 7 2 15 2 23c0 32 -14 62 -45 62c-24 0 -43 -7 -63 -22l-86 -403h-144l145 680l148 20l-54 -254c41 30 87 54 131 54c56 0 115 -61 115 -127c0 -7 0 -15 -2 -22l-41 -191
c-3 -13 -8 -28 -8 -41c0 -17 8 -30 38 -30c7 0 18 0 26 3z" />
    <glyph glyph-name="hyphen" unicode="-" horiz-adv-x="290" 
d="M237 301l-17 -79h-201l18 79h200z" />
    <glyph glyph-name="i" unicode="i" horiz-adv-x="269" 
d="M64 500h144l-72 -340c-2 -11 -4 -22 -4 -31c0 -22 10 -38 50 -38s92 56 132 88h34c-46 -46 -159 -179 -237 -179c-77 0 -125 34 -125 109c0 15 2 32 6 51zM83 632c0 44 35 80 79 80s80 -36 80 -80s-36 -79 -80 -79s-79 35 -79 79z" />
    <glyph glyph-name="i.fina" horiz-adv-x="249" 
d="M88 632c0 44 35 80 79 80s80 -36 80 -80s-36 -79 -80 -79s-79 35 -79 79zM218 500l-72 -340c-3 -12 -5 -23 -5 -34c0 -21 8 -37 36 -37c7 0 18 0 26 3c-28 -86 -70 -92 -104 -92c-71 0 -102 47 -102 110c0 16 2 33 6 50l72 340h143z" />
    <glyph glyph-name="i_j.fina" horiz-adv-x="482" 
d="M219 8l104 492h145l-122 -580c-30 -143 -116 -170 -182 -170c-61 0 -118 43 -118 108c0 93 78 122 173 150zM218 500l-106 -500h-143l106 500h143zM88 632c0 44 35 80 79 80s80 -36 80 -80s-36 -79 -80 -79s-79 35 -79 79zM339 634c0 44 35 80 79 80s80 -36 80 -80
s-36 -79 -80 -79s-79 35 -79 79zM101 -128c0 -14 18 -33 40 -33c20 0 47 19 59 78l12 59c-63 -21 -111 -50 -111 -104z" />
    <glyph glyph-name="i_s.fina" horiz-adv-x="606" 
d="M71 500h145l-72 -340c-4 -17 -8 -36 -8 -50c0 -17 6 -29 26 -29c19 0 37 20 54 47c0 82 36 128 76 131c34 65 54 153 71 229l145 30v-14c0 -165 73 -213 73 -330c0 -93 -59 -174 -194 -174c-92 0 -147 20 -165 79c-33 -44 -70 -79 -104 -79c-78 0 -124 34 -124 109
c0 16 2 32 6 51zM369 199c-1 -38 -31 -64 -66 -64c-12 0 -24 2 -36 8c0 -59 32 -84 85 -84c34 0 83 42 83 119c0 62 -45 115 -47 240c-16 -49 -30 -113 -52 -163c24 -8 33 -26 33 -56zM88 632c0 44 35 80 79 80s80 -36 80 -80s-36 -79 -80 -79s-79 35 -79 79z" />
    <glyph glyph-name="iacute" unicode="&#xed;" horiz-adv-x="255" 
d="M71 500h145l-72 -340c-3 -11 -5 -22 -5 -32c0 -22 11 -37 50 -37c40 0 92 56 132 88h34c-46 -46 -159 -179 -237 -179s-124 34 -124 109c0 16 2 32 6 51zM115 561l91 189h105l-121 -189h-75z" />
    <glyph glyph-name="iacute.fina" horiz-adv-x="252" 
d="M218 500l-72 -340c-3 -12 -5 -23 -5 -34c0 -21 8 -37 36 -37c7 0 18 0 26 3c-28 -86 -70 -92 -104 -92c-71 0 -102 47 -102 110c0 16 2 33 6 50l72 340h143zM115 561l91 189h105l-121 -189h-75z" />
    <glyph glyph-name="iacute_s.fina" horiz-adv-x="600" 
d="M71 500h145l-72 -340c-4 -19 -11 -39 -11 -54s7 -25 27 -25c19 0 38 21 56 49c0 80 36 126 76 129c34 65 54 153 71 229l145 30v-14c0 -165 73 -213 73 -330c0 -93 -59 -174 -194 -174c-92 0 -147 20 -165 79c-33 -44 -70 -79 -104 -79c-78 0 -124 34 -124 109
c0 16 2 32 6 51zM369 199c-1 -38 -31 -64 -66 -64c-12 0 -24 2 -36 8c0 -59 32 -84 85 -84c34 0 83 42 83 119c0 62 -45 115 -47 240c-16 -49 -30 -113 -52 -163c24 -8 33 -26 33 -56zM115 561l91 189h105l-121 -189h-75z" />
    <glyph glyph-name="icircumflex" unicode="&#xee;" horiz-adv-x="269" 
d="M71 500h145l-72 -340c-3 -11 -5 -22 -5 -32c0 -22 11 -37 50 -37c40 0 92 56 132 88h34c-46 -46 -159 -179 -237 -179s-124 34 -124 109c0 16 2 32 6 51zM286 561h-32l-60 80l-157 -80h-44l212 189h21z" />
    <glyph glyph-name="idieresis" unicode="&#xef;" horiz-adv-x="269" 
d="M71 500h145l-72 -340c-3 -11 -5 -22 -5 -32c0 -22 11 -37 50 -37c40 0 92 56 132 88h34c-46 -46 -159 -179 -237 -179s-124 34 -124 109c0 16 2 32 6 51zM20 634c0 33 27 61 61 61c33 0 61 -28 61 -61c0 -34 -28 -61 -61 -61c-34 0 -61 27 -61 61zM200 634
c0 33 27 61 61 61c33 0 61 -28 61 -61c0 -34 -28 -61 -61 -61c-34 0 -61 27 -61 61z" />
    <glyph glyph-name="igrave" unicode="&#xec;" horiz-adv-x="269" 
d="M71 500h145l-72 -340c-3 -11 -5 -22 -5 -32c0 -22 11 -37 50 -37c40 0 92 56 132 88h34c-46 -46 -159 -179 -237 -179s-124 34 -124 109c0 16 2 32 6 51zM126 561l-59 189h105l29 -189h-75z" />
    <glyph glyph-name="j" unicode="j" horiz-adv-x="221" 
d="M54 500h144l-93 -438c62 30 119 74 153 148l-4 -79c-13 -63 -81 -93 -159 -115l-20 -96c-30 -143 -114 -170 -180 -170c-61 0 -118 43 -118 108c0 92 78 122 172 150zM65 634c0 44 35 80 79 80s80 -36 80 -80s-36 -79 -80 -79s-79 35 -79 79zM-168 -128
c0 -14 18 -33 40 -33c20 0 46 19 58 78l12 58c-62 -21 -110 -49 -110 -103z" />
    <glyph glyph-name="j.fina" horiz-adv-x="237" 
d="M-49 8l103 492h145l-122 -580c-30 -143 -116 -170 -182 -170c-61 0 -118 43 -118 108c0 93 78 122 174 150zM70 634c0 44 35 80 79 80s80 -36 80 -80s-36 -79 -80 -79s-79 35 -79 79zM-168 -128c0 -14 18 -33 40 -33c21 0 46 19 59 78l13 59c-64 -21 -112 -50 -112 -104z
" />
    <glyph glyph-name="k" unicode="k" horiz-adv-x="489" 
d="M370 500h108l-203 -137c9 2 17 3 26 3c54 0 116 -58 116 -124c0 -8 -1 -17 -3 -25l-14 -57c-3 -11 -5 -22 -5 -32c0 -22 11 -37 50 -37c40 0 75 56 115 88h34c-46 -46 -142 -179 -220 -179c-77 0 -125 34 -125 107c0 16 2 34 7 53l11 46c2 9 3 18 3 26
c0 36 -19 59 -46 59c-25 0 -43 -8 -64 -22l-57 -269h-144l145 680l148 20l-75 -350c75 60 193 151 193 150z" />
    <glyph glyph-name="k.fina" horiz-adv-x="485" 
d="M368 500h108l-199 -135c8 1 15 2 23 2c55 0 116 -60 116 -126c0 -7 -1 -15 -3 -23l-13 -58c-3 -14 -8 -29 -8 -42c0 -17 8 -29 38 -29c7 0 18 0 26 3c-28 -86 -70 -92 -104 -92c-71 0 -102 47 -102 110c0 16 2 33 6 50l10 47c1 7 2 15 2 23c0 32 -14 62 -45 62
c-24 0 -42 -7 -62 -21l-58 -271h-144l145 680l148 20l-74 -349c74 59 190 150 190 149z" />
    <glyph glyph-name="k.salt" horiz-adv-x="489" 
d="M368 401c-9 6 -18 8 -28 8c-30 0 -65 -24 -119 -66c26 14 54 23 80 23c54 0 116 -58 116 -124c0 -8 -1 -17 -3 -25l-14 -57c-3 -11 -5 -22 -5 -32c0 -22 11 -37 50 -37c40 0 75 56 115 88h34c-46 -46 -142 -179 -220 -179c-77 0 -125 34 -125 107c0 16 2 34 7 53l11 46
c2 9 3 18 3 26c0 36 -19 59 -46 59c-25 0 -43 -8 -64 -22l-57 -269h-144l145 680l148 20l-72 -339c161 129 174 145 230 145c28 0 39 -35 39 -50c0 -32 -37 -60 -65 -60c-6 0 -11 2 -16 5z" />
    <glyph glyph-name="l" unicode="l" horiz-adv-x="286" 
d="M111 680l148 20l-115 -540c-3 -15 -5 -24 -5 -32c0 -22 11 -37 50 -37c40 0 92 56 132 88h34c-46 -46 -159 -179 -237 -179c-77 0 -124 34 -124 109c0 15 2 32 6 51z" />
    <glyph glyph-name="l.fina" horiz-adv-x="276" 
d="M259 700l-115 -540c-3 -12 -5 -23 -5 -34c0 -21 8 -37 36 -37c7 0 18 0 26 3c-28 -86 -70 -92 -104 -92c-71 0 -102 47 -102 110c0 16 2 33 6 50l110 520z" />
    <glyph glyph-name="m" unicode="m" horiz-adv-x="744" 
d="M683 351l-41 -191c-3 -12 -5 -25 -5 -37c0 -23 9 -41 41 -41c40 0 82 59 105 102h47c-46 -54 -136 -184 -214 -184s-124 34 -124 109c0 16 2 32 6 51l38 180c2 9 3 18 3 26c0 36 -19 59 -46 59c-22 0 -39 -6 -58 -18c3 -12 5 -23 5 -35c0 -7 -1 -14 -2 -21l-74 -351h-145
l72 340c2 9 3 18 3 26c0 36 -19 59 -46 59c-24 0 -41 -7 -61 -21l-86 -404h-144l106 500h144l-11 -53c40 29 86 53 129 53c37 0 77 -27 99 -66c44 35 97 66 146 66c55 0 115 -58 115 -126c0 -8 -1 -15 -2 -23z" />
    <glyph glyph-name="m.fina" horiz-adv-x="704" 
d="M696 92c-28 -86 -70 -92 -104 -92c-65 0 -102 34 -102 109c0 16 2 32 6 51l38 180c2 9 3 18 3 26c0 36 -19 59 -46 59c-22 0 -38 -6 -56 -17c3 -12 5 -24 5 -36c0 -7 -1 -14 -2 -21l-74 -351h-145l72 340c2 9 3 18 3 26c0 36 -19 59 -46 59c-24 0 -41 -7 -61 -21
l-86 -404h-144l106 500h144l-11 -53c40 29 86 53 129 53c37 0 76 -26 98 -64c45 34 96 64 145 64c55 0 115 -58 115 -126c0 -8 -1 -15 -2 -23c-5 -33 -48 -209 -48 -231c0 -17 8 -31 37 -31c7 0 18 0 26 3z" />
    <glyph glyph-name="n" unicode="n" 
d="M446 351l-41 -191c-3 -11 -5 -22 -5 -32c0 -22 11 -37 50 -37c40 0 55 31 95 63h34c-46 -46 -122 -154 -200 -154s-124 34 -124 109c0 16 2 32 6 51l38 180c2 9 3 18 3 26c0 36 -19 59 -46 59c-24 0 -42 -7 -63 -21l-85 -404h-144l106 500h144l-12 -54
c41 30 87 54 131 54c54 0 115 -58 115 -125c0 -8 0 -16 -2 -24z" />
    <glyph glyph-name="n.fina" horiz-adv-x="484" 
d="M461 92c-28 -86 -70 -92 -104 -92c-65 0 -102 34 -102 109c0 16 2 32 6 51l38 180c2 9 3 18 3 26c0 36 -19 59 -46 59c-24 0 -42 -7 -63 -21l-85 -404h-144l106 500h144l-12 -54c41 30 87 54 131 54c55 0 115 -58 115 -126c0 -8 -1 -15 -2 -23c-5 -33 -48 -209 -48 -231
c0 -17 8 -31 37 -31c7 0 18 0 26 3z" />
    <glyph glyph-name="ntilde" unicode="&#xf1;" 
d="M446 351l-41 -191c-3 -11 -5 -22 -5 -32c0 -22 11 -37 50 -37c40 0 55 31 95 63h34c-46 -46 -122 -154 -200 -154s-124 34 -124 109c0 16 2 32 6 51l38 180c2 9 3 18 3 26c0 36 -19 59 -46 59c-24 0 -42 -7 -63 -21l-85 -404h-144l106 500h144l-12 -54
c41 30 87 54 131 54c54 0 115 -58 115 -125c0 -8 0 -16 -2 -24zM480 670l6 -1c-11 -47 -85 -100 -161 -100c-66 0 -113 37 -168 37c-26 0 -48 -9 -66 -26l-6 2c32 64 91 98 167 98c73 0 107 -33 165 -33c25 0 49 8 63 23z" />
    <glyph glyph-name="o" unicode="o" horiz-adv-x="418" 
d="M256 510c95 0 119 -74 121 -147c6 -6 15 -9 29 -9c47 0 68 34 105 49l4 -21c-31 -39 -83 -72 -141 -88c-19 -201 -128 -300 -228 -300c-107 0 -153 45 -153 164c0 246 125 352 263 352zM193 91c61 0 95 96 107 193c-29 0 -42 21 -42 45c0 29 17 60 44 70
c-3 33 -14 52 -42 52c-94 0 -134 -204 -134 -284c0 -60 28 -76 67 -76z" />
    <glyph glyph-name="o.fina" horiz-adv-x="430" 
d="M372 372c26 16 35 34 58 59l10 -20c-10 -35 -27 -82 -67 -106c-11 -207 -129 -312 -223 -312c-107 0 -157 46 -157 165c0 244 126 352 263 352c48 0 94 -19 94 -45c0 -29 -24 -41 -45 -48c-8 21 -22 34 -45 34c-98 0 -134 -204 -134 -284c0 -60 30 -76 70 -76
c59 0 94 108 104 200c-20 4 -28 20 -28 41c0 35 35 76 67 76c19 0 34 -6 34 -27c0 -3 0 -6 -1 -9z" />
    <glyph glyph-name="o_s.fina" horiz-adv-x="734" 
d="M256 510c94 0 119 -73 121 -145c5 -3 11 -4 19 -4c81 0 115 88 151 141l109 22c0 -181 66 -228 66 -348c0 -93 -68 -176 -203 -176c-103 0 -134 59 -134 136c0 66 56 107 110 107c35 0 47 -28 47 -71c0 -26 -37 -59 -68 -59c-16 0 -32 7 -42 25c-2 -7 -4 -14 -4 -21
c0 -30 23 -53 75 -53c57 0 87 33 87 115c0 59 -33 119 -35 239c-78 -82 -96 -120 -182 -137c-22 -193 -129 -287 -227 -287c-107 0 -153 45 -153 164c0 246 125 352 263 352zM193 91c61 0 95 96 107 193c-29 0 -42 21 -42 45c0 29 17 60 44 70c-3 33 -14 52 -42 52
c-94 0 -134 -204 -134 -284c0 -60 28 -76 67 -76z" />
    <glyph glyph-name="oacute" unicode="&#xf3;" horiz-adv-x="433" 
d="M261 510c95 0 119 -74 121 -147c6 -6 15 -9 29 -9c47 0 68 34 105 49l4 -21c-31 -39 -83 -72 -141 -88c-19 -201 -128 -300 -228 -300c-107 0 -153 45 -153 164c0 246 125 352 263 352zM198 91c61 0 95 96 107 193c-29 0 -42 21 -42 45c0 29 17 60 44 70
c-3 33 -14 52 -42 52c-94 0 -134 -204 -134 -284c0 -60 28 -76 67 -76zM216 561l91 189h105l-121 -189h-75z" />
    <glyph glyph-name="oacute.fina" horiz-adv-x="444" 
d="M377 372c26 16 35 34 58 59l10 -20c-10 -35 -27 -82 -67 -106c-11 -207 -129 -312 -223 -312c-107 0 -157 46 -157 165c0 244 126 352 263 352c48 0 94 -19 94 -45c0 -29 -24 -41 -45 -48c-8 21 -22 34 -45 34c-98 0 -134 -204 -134 -284c0 -60 30 -76 70 -76
c59 0 94 108 104 200c-20 4 -28 20 -28 41c0 35 35 76 67 76c19 0 34 -6 34 -27c0 -3 0 -6 -1 -9zM244 561l91 189h105l-121 -189h-75z" />
    <glyph glyph-name="oacute_s.fina" horiz-adv-x="736" 
d="M256 510c94 0 119 -73 121 -145c5 -3 11 -4 19 -4c81 0 115 88 151 141l109 22c0 -181 66 -228 66 -348c0 -93 -68 -176 -203 -176c-103 0 -134 59 -134 136c0 66 56 107 110 107c35 0 47 -28 47 -71c0 -26 -37 -59 -68 -59c-16 0 -32 7 -42 25c0 -39 9 -78 73 -78
c57 0 85 37 85 119c0 59 -33 119 -35 239c-78 -82 -96 -120 -182 -137c-22 -193 -129 -287 -227 -287c-107 0 -153 45 -153 164c0 246 125 352 263 352zM193 91c61 0 95 96 107 193c-29 0 -42 21 -42 45c0 29 17 60 44 70c-3 33 -14 52 -42 52c-94 0 -134 -204 -134 -284
c0 -60 28 -76 67 -76zM236 561l91 189h105l-121 -189h-75z" />
    <glyph glyph-name="ocircumflex" unicode="&#xf4;" horiz-adv-x="418" 
d="M256 510c95 0 119 -74 121 -147c6 -6 15 -9 29 -9c47 0 68 34 105 49l4 -21c-31 -39 -83 -72 -141 -88c-19 -201 -128 -300 -228 -300c-107 0 -153 45 -153 164c0 246 125 352 263 352zM193 91c61 0 95 96 107 193c-29 0 -42 21 -42 45c0 29 17 60 44 70
c-3 33 -14 52 -42 52c-94 0 -134 -204 -134 -284c0 -60 28 -76 67 -76zM395 561h-32l-60 80l-157 -80h-44l212 189h21z" />
    <glyph glyph-name="odieresis" unicode="&#xf6;" horiz-adv-x="418" 
d="M256 510c95 0 119 -74 121 -147c6 -6 15 -9 29 -9c47 0 68 34 105 49l4 -21c-31 -39 -83 -72 -141 -88c-19 -201 -128 -300 -228 -300c-107 0 -153 45 -153 164c0 246 125 352 263 352zM193 91c61 0 95 96 107 193c-29 0 -42 21 -42 45c0 29 17 60 44 70
c-3 33 -14 52 -42 52c-94 0 -134 -204 -134 -284c0 -60 28 -76 67 -76zM104 634c0 33 27 61 61 61c33 0 61 -28 61 -61c0 -34 -28 -61 -61 -61c-34 0 -61 27 -61 61zM284 634c0 33 27 61 61 61c33 0 61 -28 61 -61c0 -34 -28 -61 -61 -61c-34 0 -61 27 -61 61z" />
    <glyph glyph-name="ograve" unicode="&#xf2;" horiz-adv-x="418" 
d="M256 510c95 0 119 -74 121 -147c6 -6 15 -9 29 -9c47 0 68 34 105 49l4 -21c-31 -39 -83 -72 -141 -88c-19 -201 -128 -300 -228 -300c-107 0 -153 45 -153 164c0 246 125 352 263 352zM193 91c61 0 95 96 107 193c-29 0 -42 21 -42 45c0 29 17 60 44 70
c-3 33 -14 52 -42 52c-94 0 -134 -204 -134 -284c0 -60 28 -76 67 -76zM201 561l-59 189h105l29 -189h-75z" />
    <glyph glyph-name="otilde" unicode="&#xf5;" horiz-adv-x="418" 
d="M256 510c95 0 119 -74 121 -147c6 -6 15 -9 29 -9c47 0 68 34 105 49l4 -21c-31 -39 -83 -72 -141 -88c-19 -201 -128 -300 -228 -300c-107 0 -153 45 -153 164c0 246 125 352 263 352zM193 91c61 0 95 96 107 193c-29 0 -42 21 -42 45c0 29 17 60 44 70
c-3 33 -14 52 -42 52c-94 0 -134 -204 -134 -284c0 -60 28 -76 67 -76zM451 670l6 -1c-11 -47 -85 -100 -161 -100c-66 0 -113 37 -168 37c-26 0 -48 -9 -66 -26l-6 2c32 64 91 98 167 98c73 0 107 -33 165 -33c25 0 49 8 63 23z" />
    <glyph glyph-name="p" unicode="p" horiz-adv-x="455" 
d="M63 500h144l-4 -19c21 11 45 18 70 18c104 0 153 -37 153 -140c0 -21 -2 -44 -6 -70c-31 -215 -117 -288 -219 -288c-33 0 -64 11 -94 30l-52 -245l-151 -36zM185 75c50 0 74 43 107 202c9 44 13 77 13 101c0 60 -24 72 -56 72c-19 0 -38 -8 -57 -21l-72 -336
c24 -18 49 -18 65 -18z" />
    <glyph glyph-name="period" unicode="." horiz-adv-x="263" 
d="M31 75c0 44 35 80 79 80s80 -36 80 -80s-36 -79 -80 -79s-79 35 -79 79z" />
    <glyph glyph-name="q" unicode="q" horiz-adv-x="476" 
d="M325 500h144l-152 -714l-151 -36l79 372c-41 -68 -91 -118 -148 -118c-67 0 -111 33 -111 106c0 233 116 389 255 389c29 0 62 -3 78 -27zM263 455c-77 0 -151 -168 -151 -313c0 -41 5 -67 33 -67c33 0 72 48 113 109l35 166c5 25 9 47 9 63c0 28 -11 42 -39 42z" />
    <glyph glyph-name="r" unicode="r" horiz-adv-x="393" 
d="M74 500h144l-11 -50c36 28 76 50 118 50c45 0 72 -26 72 -64c0 -35 -26 -78 -75 -78c-56 0 -28 66 -58 66s-46 -11 -69 -32l-83 -392h-144z" />
    <glyph glyph-name="ring" unicode="&#x2da;" horiz-adv-x="833" 
d="M423 713c49 0 72 -34 72 -77c0 -44 -25 -84 -87 -84c-43 0 -70 32 -70 70c0 36 25 91 85 91zM458 633c0 19 -1 47 -33 47c-35 0 -47 -31 -47 -56c0 -22 10 -37 34 -37c31 0 46 18 46 46z" />
    <glyph glyph-name="s" unicode="s" horiz-adv-x="406" 
d="M143 490l145 30v-14c0 -165 68 -215 68 -332c0 -7 0 -14 -1 -21c28 25 53 51 65 65l26 -34c-28 -22 -68 -57 -108 -91c-26 -55 -83 -93 -176 -93c-115 0 -171 33 -171 131c0 80 36 126 76 129c36 65 59 154 76 230zM144 199c0 -38 -31 -64 -66 -64c-12 0 -24 3 -36 9
c0 -59 32 -85 85 -85c34 0 83 42 83 119c0 62 -45 115 -47 240c-16 -49 -30 -113 -52 -163c24 -8 33 -26 33 -56z" />
    <glyph glyph-name="s.fina" horiz-adv-x="380" 
d="M138 488l145 30v-14c0 -165 73 -213 73 -330c0 -93 -59 -174 -194 -174c-115 0 -171 33 -171 131c0 79 36 125 76 128c34 65 54 153 71 229zM144 199c-1 -38 -31 -64 -66 -64c-12 0 -24 3 -36 9c0 -59 32 -85 85 -85c34 0 83 42 83 119c0 62 -45 115 -47 240
c-16 -49 -30 -113 -52 -163c24 -8 33 -26 33 -56z" />
    <glyph glyph-name="semicolon" unicode=";" horiz-adv-x="276" 
d="M94 331c0 44 35 80 79 80s80 -36 80 -80s-36 -79 -80 -79s-79 35 -79 79zM46 91c0 44 35 80 79 80s68 -32 68 -76c0 -60 -48 -148 -130 -205c-7 5 -9 11 -9 17c0 36 52 54 52 91c0 7 -4 14 -13 20c-26 17 -47 40 -47 73z" />
    <glyph glyph-name="space" unicode=" " horiz-adv-x="217" 
 />
    <glyph glyph-name="t" unicode="t" horiz-adv-x="292" 
d="M106 638l148 20s-15 -68 -34 -158h60l-8 -40h-60c-69 -316 -68 -326 -68 -331c0 -23 10 -38 50 -38s92 56 132 88h34c-46 -46 -159 -179 -237 -179c-77 0 -124 34 -124 109c0 53 52 265 69 351h-33l8 40h33z" />
    <glyph glyph-name="t.fina" horiz-adv-x="287" 
d="M212 460l-64 -300c-3 -12 -5 -24 -5 -35c0 -21 8 -36 35 -36c7 0 18 0 26 3c-28 -86 -72 -92 -106 -92c-70 0 -100 46 -100 108c0 16 2 34 6 52l64 300h-33l8 40h33l30 138l148 20s-15 -68 -34 -158h60l-8 -40h-60z" />
    <glyph glyph-name="tilde" unicode="&#x2dc;" horiz-adv-x="431" 
d="M444 670l6 -1c-11 -47 -85 -100 -161 -100c-66 0 -113 37 -168 37c-26 0 -48 -9 -66 -26l-6 2c32 64 91 98 167 98c73 0 107 -33 165 -33c25 0 49 8 63 23z" />
    <glyph glyph-name="u" unicode="u" horiz-adv-x="520" 
d="M331 500h144l-72 -340c-2 -11 -4 -22 -4 -31c0 -22 10 -38 50 -38s92 56 132 88h34c-46 -46 -159 -179 -237 -179c-68 0 -114 26 -123 84c-47 -44 -101 -84 -144 -84c-77 0 -125 34 -125 109c0 15 2 32 6 51l72 340h144l-72 -340c-2 -11 -4 -22 -4 -31
c0 -22 10 -38 50 -38c21 0 46 16 71 36c1 10 3 21 6 33z" />
    <glyph glyph-name="u.fina" horiz-adv-x="484" 
d="M473 500l-72 -340c-3 -12 -5 -23 -5 -34c0 -21 8 -37 36 -37c7 0 18 0 26 3c-28 -86 -70 -92 -104 -92c-62 0 -92 34 -100 84c-47 -44 -100 -84 -143 -84c-78 0 -124 34 -124 109c0 16 2 32 6 51l70 340h147l-73 -340c-3 -11 -5 -22 -5 -32c0 -22 11 -37 50 -37
c21 0 46 16 71 36c0 10 2 21 5 33l72 340h143z" />
    <glyph glyph-name="uacute" unicode="&#xfa;" horiz-adv-x="510" 
d="M331 500h144l-72 -340c-2 -11 -4 -22 -4 -31c0 -22 10 -38 50 -38s92 56 132 88h34c-46 -46 -159 -179 -237 -179c-68 0 -114 26 -123 84c-47 -44 -101 -84 -144 -84c-77 0 -125 34 -125 109c0 15 2 32 6 51l72 340h144l-72 -340c-2 -11 -4 -22 -4 -31
c0 -22 10 -38 50 -38c21 0 46 16 71 36c1 10 3 21 6 33zM239 561l91 189h105l-121 -189h-75z" />
    <glyph glyph-name="uacute.fina" horiz-adv-x="491" 
d="M473 500l-72 -340c-3 -12 -5 -23 -5 -34c0 -21 8 -37 36 -37c7 0 18 0 26 3c-28 -86 -70 -92 -104 -92c-62 0 -92 34 -100 84c-47 -44 -100 -84 -143 -84c-78 0 -124 34 -124 109c0 16 2 32 6 51l70 340h147l-73 -340c-3 -11 -5 -22 -5 -32c0 -22 11 -37 50 -37
c21 0 46 16 71 36c0 10 2 21 5 33l72 340h143zM239 561l91 189h105l-121 -189h-75z" />
    <glyph glyph-name="ucircumflex" unicode="&#xfb;" horiz-adv-x="520" 
d="M331 500h144l-72 -340c-2 -11 -4 -22 -4 -31c0 -22 10 -38 50 -38s92 56 132 88h34c-46 -46 -159 -179 -237 -179c-68 0 -114 26 -123 84c-47 -44 -101 -84 -144 -84c-77 0 -125 34 -125 109c0 15 2 32 6 51l72 340h144l-72 -340c-2 -11 -4 -22 -4 -31
c0 -22 10 -38 50 -38c21 0 46 16 71 36c1 10 3 21 6 33zM425 561h-32l-60 80l-157 -80h-44l212 189h21z" />
    <glyph glyph-name="udieresis" unicode="&#xfc;" horiz-adv-x="520" 
d="M331 500h144l-72 -340c-2 -11 -4 -22 -4 -31c0 -22 10 -38 50 -38s92 56 132 88h34c-46 -46 -159 -179 -237 -179c-68 0 -114 26 -123 84c-47 -44 -101 -84 -144 -84c-77 0 -125 34 -125 109c0 15 2 32 6 51l72 340h144l-72 -340c-2 -11 -4 -22 -4 -31
c0 -22 10 -38 50 -38c21 0 46 16 71 36c1 10 3 21 6 33zM314 634c0 33 27 61 61 61c33 0 61 -28 61 -61c0 -34 -28 -61 -61 -61c-34 0 -61 27 -61 61zM134 634c0 33 27 61 61 61c33 0 61 -28 61 -61c0 -34 -28 -61 -61 -61c-34 0 -61 27 -61 61z" />
    <glyph glyph-name="ugrave" unicode="&#xf9;" horiz-adv-x="520" 
d="M331 500h144l-72 -340c-2 -11 -4 -22 -4 -31c0 -22 10 -38 50 -38s92 56 132 88h34c-46 -46 -159 -179 -237 -179c-68 0 -114 26 -123 84c-47 -44 -101 -84 -144 -84c-77 0 -125 34 -125 109c0 15 2 32 6 51l72 340h144l-72 -340c-2 -11 -4 -22 -4 -31
c0 -22 10 -38 50 -38c21 0 46 16 71 36c1 10 3 21 6 33zM252 561l-59 189h105l29 -189h-75z" />
    <glyph glyph-name="v" unicode="v" horiz-adv-x="416" 
d="M328 520c43 0 64 -38 64 -90c0 -156 -79 -430 -281 -430c-77 0 -124 34 -124 109c0 15 1 32 5 51l72 340h144l-72 -340c-3 -14 -5 -26 -5 -37c0 -19 9 -32 38 -32c98 0 165 219 165 328c-6 -2 -15 -4 -21 -4c-29 0 -42 28 -42 56c0 21 24 49 57 49z" />
    <glyph glyph-name="w" unicode="w" horiz-adv-x="671" 
d="M592 520c43 0 64 -38 64 -90c0 -156 -79 -430 -281 -430c-68 0 -112 26 -122 83c-47 -43 -101 -83 -143 -83c-77 0 -125 34 -125 109c0 15 2 32 6 51l72 340h144l-72 -340c-2 -11 -4 -22 -4 -31c0 -22 10 -38 50 -38c21 0 46 15 70 35c0 10 2 22 5 34l72 340h144
l-72 -340c-3 -14 -5 -26 -5 -37c0 -19 9 -32 38 -32c98 0 165 219 165 328c-6 -2 -15 -4 -21 -4c-29 0 -42 28 -42 56c0 21 24 49 57 49z" />
    <glyph glyph-name="x" unicode="x" horiz-adv-x="365" 
d="M-34 58l-19 30c31 21 95 79 128 113l-65 299h144l51 -235c48 44 95 107 97 156c-6 -1 -12 -2 -17 -2c-35 0 -47 25 -47 56c0 34 32 49 68 49c37 0 56 -41 56 -84c0 -67 -90 -170 -146 -227l13 -58c9 -41 14 -64 59 -64c40 0 92 56 132 88h34c-46 -46 -159 -179 -237 -179
c-88 0 -104 24 -132 155l-1 3c-35 -29 -79 -69 -118 -100z" />
    <glyph glyph-name="x.fina" horiz-adv-x="365" 
d="M-34 58l-19 30c31 21 95 79 128 113l-65 299h145l50 -235c48 44 95 107 97 156c-6 -1 -12 -2 -17 -2c-35 0 -47 25 -47 56c0 34 32 49 68 49c37 0 56 -41 56 -84c0 -67 -90 -170 -146 -227l13 -58c9 -41 14 -64 59 -64c20 0 44 15 67 33c-25 -101 -83 -124 -141 -124
c-88 0 -101 24 -129 155l-1 3c-35 -29 -79 -69 -118 -100z" />
    <glyph glyph-name="y" unicode="y" horiz-adv-x="510" 
d="M336 500h144l-93 -438c62 30 119 74 153 148l-4 -79c-13 -63 -81 -93 -159 -115l-20 -96c-30 -143 -114 -170 -180 -170c-61 0 -118 43 -118 108c0 92 77 122 172 150l14 68c-45 -41 -94 -76 -134 -76c-77 0 -125 34 -125 109c0 15 2 32 6 51l72 340h144l-72 -340
c-2 -11 -4 -22 -4 -31c0 -22 10 -38 50 -38c22 0 49 17 75 39zM114 -128c0 -14 18 -33 40 -33c20 0 46 19 58 78l12 58c-63 -21 -110 -49 -110 -103z" />
    <glyph glyph-name="y.fina" horiz-adv-x="491" 
d="M63 500h147l-73 -340c-3 -11 -5 -22 -5 -32c0 -22 11 -37 50 -37c23 0 50 18 76 40l78 369h145l-122 -580c-30 -143 -116 -170 -182 -170c-61 0 -118 43 -118 108c0 93 78 122 173 150l15 69c-45 -41 -96 -77 -136 -77c-78 0 -124 34 -124 109c0 16 2 32 6 51zM114 -128
c0 -14 18 -33 40 -33c20 0 47 19 59 78l12 59c-63 -21 -111 -50 -111 -104z" />
    <glyph glyph-name="yacute" unicode="&#xfd;" horiz-adv-x="510" 
d="M336 500h144l-93 -438c62 30 119 74 153 148l-4 -79c-13 -63 -81 -93 -159 -115l-20 -96c-30 -143 -114 -170 -180 -170c-61 0 -118 43 -118 108c0 92 77 122 172 150l14 68c-45 -41 -94 -76 -134 -76c-77 0 -125 34 -125 109c0 15 2 32 6 51l72 340h144l-72 -340
c-2 -11 -4 -22 -4 -31c0 -22 10 -38 50 -38c22 0 49 17 75 39zM236 561l91 189h105l-121 -189h-75zM114 -128c0 -14 18 -33 40 -33c20 0 46 19 58 78l12 58c-63 -21 -110 -49 -110 -103z" />
    <glyph glyph-name="ydieresis" unicode="&#xff;" horiz-adv-x="510" 
d="M336 500h144l-93 -438c62 30 119 74 153 148l-4 -79c-13 -63 -81 -93 -159 -115l-20 -96c-30 -143 -114 -170 -180 -170c-61 0 -118 43 -118 108c0 92 77 122 172 150l14 68c-45 -41 -94 -76 -134 -76c-77 0 -125 34 -125 109c0 15 2 32 6 51l72 340h144l-72 -340
c-2 -11 -4 -22 -4 -31c0 -22 10 -38 50 -38c22 0 49 17 75 39zM133 634c0 33 27 61 61 61c33 0 61 -28 61 -61c0 -34 -28 -61 -61 -61c-34 0 -61 27 -61 61zM313 634c0 33 27 61 61 61c33 0 61 -28 61 -61c0 -34 -28 -61 -61 -61c-34 0 -61 27 -61 61zM114 -128
c0 -14 18 -33 40 -33c20 0 46 19 58 78l12 58c-63 -21 -110 -49 -110 -103z" />
    <glyph glyph-name="z" unicode="z" horiz-adv-x="383" 
d="M246 62c-9 0 -18 11 -18 28c0 47 32 61 64 61c28 0 47 -26 47 -58c0 -51 -37 -93 -117 -93h-269l263 458c-23 1 -50 2 -73 2c-31 0 -55 -4 -55 -22c9 0 17 -12 17 -29c0 -47 -31 -60 -63 -60c-28 0 -47 26 -47 58c0 51 37 93 117 93h269l-263 -458c23 -1 49 -2 73 -2
c31 0 55 4 55 22z" />
    <glyph glyph-name="Euro" unicode="&#x20ac;" horiz-adv-x="573" 
d="M242 334h196l-14 -50h-185v-13c0 -131 24 -187 132 -187c77 0 114 9 154 40l2 -29c-60 -79 -132 -101 -226 -101c-102 0 -219 50 -219 255v35h-85l14 50h74c2 21 5 43 8 65h-71l14 50h67c37 160 128 301 316 301c93 0 174 -37 174 -134c0 -53 -19 -92 -70 -92
c-16 0 -38 4 -57 26c25 7 44 57 44 82c0 16 -5 71 -69 71c-85 0 -149 -121 -180 -254h202l-14 -50h-199c-4 -22 -7 -44 -8 -65z" />
    <glyph glyph-name="equal" unicode="=" horiz-adv-x="515" 
d="M468 428l-23 -112h-369l24 112h368zM424 213l-23 -112h-369l24 112h368z" />
    <glyph glyph-name="copyright" unicode="&#xa9;" horiz-adv-x="587" 
d="M300 484l-1 -3c63 0 112 -39 125 -92l-52 -20c-6 7 -3 14 -5 21s-18 42 -67 42c-47 0 -93 -29 -93 -91c0 -60 42 -107 95 -107c31 0 60 17 75 45l44 -29c-28 -42 -74 -68 -123 -68c-81 0 -146 71 -146 154c0 85 67 148 148 148zM293 76c-132 0 -242 113 -242 255
c0 143 110 256 242 256s242 -112 242 -255s-110 -256 -242 -256zM97 331c0 -120 90 -213 198 -213c107 0 197 93 197 213s-90 213 -197 213c-108 0 -198 -93 -198 -213z" />
    <glyph glyph-name="registered" unicode="&#xae;" horiz-adv-x="553" 
d="M276 79c-132 0 -242 113 -242 255c0 143 110 256 242 256s242 -112 242 -255s-110 -256 -242 -256zM80 334c0 -120 90 -213 198 -213c107 0 197 93 197 213s-90 213 -197 213c-108 0 -198 -93 -198 -213zM176 192l1 291h94c69 0 120 -29 120 -85c0 -35 -24 -66 -59 -76
l65 -125l-47 -7l-62 125h-66v-123h-46zM222 442v-89h52c29 0 71 7 71 44c0 35 -40 45 -73 45h-50z" />
    <glyph glyph-name="dollar" unicode="$" horiz-adv-x="403" 
d="M110 -27l24 135c-61 5 -110 35 -110 114c0 52 33 86 72 86c28 0 43 -12 43 -25c-28 -5 -40 -34 -40 -74c0 -29 20 -51 42 -61l36 196c-48 40 -106 73 -106 137c0 74 80 128 154 131l19 106h58l-25 -109c43 -7 87 -27 87 -83c0 -46 -18 -76 -48 -76c-16 0 -26 7 -39 23
c17 10 24 31 24 52c0 15 -10 35 -32 44l-36 -161c51 -33 113 -71 113 -153c0 -95 -76 -146 -180 -148l-29 -134h-27zM241 234c0 31 -12 55 -29 76l-37 -166c48 6 66 46 66 90zM166 500c0 -25 11 -44 28 -61l24 135c-39 -8 -52 -44 -52 -74z" />
    <glyph glyph-name="plus" unicode="+" horiz-adv-x="515" 
d="M345 439l-27 -122h127l-23 -112h-128l-27 -123h-113l27 123h-128l24 112h128l27 122h113z" />
    <glyph glyph-name="slash" unicode="/" horiz-adv-x="311" 
d="M295 750l-212 -1000h-72l212 1000h72z" />
    <glyph glyph-name="bar" unicode="|" horiz-adv-x="532" 
d="M312 751v-1001h-93v1001h93z" />
    <glyph glyph-name="circumflex" unicode="&#x2c6;" horiz-adv-x="421" 
d="M343 561h-32l-60 80l-157 -80h-44l212 189h21z" />
    <glyph glyph-name="asciitilde" unicode="~" horiz-adv-x="431" 
d="M444 670l6 -1c-11 -47 -85 -100 -161 -100c-66 0 -113 37 -168 37c-26 0 -48 -9 -66 -26l-6 2c32 64 91 98 167 98c73 0 107 -33 165 -33c25 0 49 8 63 23z" />
    <glyph glyph-name="cent" unicode="&#xa2;" horiz-adv-x="403" 
d="M127 -27l31 173c-69 10 -127 68 -127 170c0 135 73 261 208 279l22 123h58l-27 -122c47 -3 90 -20 90 -68c0 -11 -1 -20 -5 -33h-57c3 11 5 20 5 28c0 24 -15 34 -37 34h-5l-76 -343c5 -1 9 -1 15 -1c54 0 93 34 132 68c-14 -84 -64 -132 -162 -136l-38 -172h-27z
M136 319c0 -33 11 -70 37 -90l55 305c-54 -42 -92 -135 -92 -215z" />
    <glyph glyph-name="caron" unicode="&#x2c7;" horiz-adv-x="421" 
d="M78 750h32l60 -80l157 80h44l-212 -189h-21z" />
    <glyph glyph-name="scaron" unicode="&#x161;" horiz-adv-x="406" 
d="M143 490l145 30v-14c0 -165 68 -215 68 -332c0 -7 0 -14 -1 -21c28 25 53 51 65 65l26 -34c-28 -22 -68 -57 -108 -91c-26 -55 -83 -93 -176 -93c-115 0 -171 33 -171 131c0 80 36 126 76 129c36 65 59 154 76 230zM144 199c0 -38 -31 -64 -66 -64c-12 0 -24 3 -36 9
c0 -59 32 -85 85 -85c34 0 83 42 83 119c0 62 -45 115 -47 240c-16 -49 -30 -113 -52 -163c24 -8 33 -26 33 -56zM177 750h32l60 -80l157 80h44l-212 -189h-21z" />
    <glyph glyph-name="zcaron" unicode="&#x17e;" horiz-adv-x="383" 
d="M246 62c-9 0 -18 11 -18 28c0 47 32 61 64 61c28 0 47 -26 47 -58c0 -51 -37 -93 -117 -93h-269l263 458c-23 1 -50 2 -73 2c-31 0 -55 -4 -55 -22c9 0 17 -12 17 -29c0 -47 -31 -60 -63 -60c-28 0 -47 26 -47 58c0 51 37 93 117 93h269l-263 -458c23 -1 49 -2 73 -2
c31 0 55 4 55 22zM155 750h32l60 -80l157 80h44l-212 -189h-21z" />
    <glyph glyph-name="numbersign" unicode="#" horiz-adv-x="659" 
d="M307 -27l25 138h-118l-30 -138h-57l25 138h-107l21 102h104l21 113h-102l21 102h99l52 290h88l-65 -290h105l52 290h88l-65 -290h104l-20 -102h-106l-25 -113h107l-20 -102h-110l-30 -138h-57zM262 326l-25 -113h113l21 113h-109z" />
    <glyph glyph-name="bullet" unicode="&#x2022;" horiz-adv-x="434" 
d="M120 267c0 53 43 97 96 97s97 -44 97 -97s-44 -96 -97 -96s-96 43 -96 96z" />
    <glyph glyph-name="brokenbar" unicode="&#xa6;" horiz-adv-x="532" 
d="M312 222v-472h-93v472h93zM312 301h-93v450h93v-450z" />
    <glyph glyph-name="daggerdbl" unicode="&#x2021;" horiz-adv-x="495" 
d="M378 750l-69 -322h151l-23 -112h-151l-22 -103h152l-23 -112h-153l-74 -351h-72l74 351h-144l24 112h144l22 103h-146l24 112h145l69 322h72z" />
    <glyph glyph-name="dagger" unicode="&#x2020;" horiz-adv-x="495" 
d="M378 750l-69 -322h151l-23 -112h-151l-120 -566h-72l120 566h-146l24 112h145l69 322h72z" />
    <glyph glyph-name="bracketleft" unicode="[" horiz-adv-x="400" 
d="M182 -188l-13 -62h-193l212 1000h193l-13 -61h-121l-186 -877h121z" />
    <glyph glyph-name="endash" unicode="&#x2013;" horiz-adv-x="352" 
d="M297 301l-17 -79h-261l18 79h260z" />
    <glyph glyph-name="emdash" unicode="&#x2014;" horiz-adv-x="444" 
d="M387 301l-17 -79h-351l18 79h350z" />
    <glyph glyph-name="periodcentered" unicode="&#xb7;" horiz-adv-x="434" 
d="M120 267c0 53 43 97 96 97s97 -44 97 -97s-44 -96 -97 -96s-96 43 -96 96z" />
    <glyph glyph-name="logicalnot" unicode="&#xac;" horiz-adv-x="444" 
d="M399 301l-51 -250h-113l35 171h-251l18 79h362z" />
    <glyph glyph-name="underscore" unicode="_" horiz-adv-x="444" 
d="M404 79l-17 -79h-351l18 79h350z" />
    <glyph glyph-name="minus" unicode="&#x2212;" horiz-adv-x="444" 
d="M387 301l-17 -79h-351l18 79h350z" />
    <glyph glyph-name="plusminus" unicode="&#xb1;" horiz-adv-x="533" 
d="M375 543l-27 -122h127l-23 -112h-128l-27 -123h-113l27 123h-128l24 112h128l27 122h113zM416 147l-17 -79h-368l18 79h367z" />
    <glyph glyph-name="divide" unicode="&#xf7;" horiz-adv-x="472" 
d="M147 80c0 44 35 80 79 80s80 -36 80 -80s-36 -79 -80 -79s-79 35 -79 79zM207 415c0 44 35 80 79 80s80 -36 80 -80s-36 -79 -80 -79s-79 35 -79 79zM419 285l-17 -79h-351l18 79h350z" />
    <glyph glyph-name="quotesingle" unicode="'" horiz-adv-x="197" 
d="M15 561l61 189h105l-91 -189h-75z" />
    <glyph glyph-name="Ydieresis" unicode="&#x178;" horiz-adv-x="620" 
d="M438 0h-160l66 308l-96 375c-93 -34 -149 -112 -149 -222c0 -51 13 -59 14 -68c-69 0 -107 25 -107 97c0 133 184 260 351 260c14 0 27 -1 40 -2l87 -358l148 355h66l-194 -437zM626 884c0 33 27 61 61 61c33 0 61 -28 61 -61c0 -34 -28 -61 -61 -61c-34 0 -61 27 -61 61
zM446 884c0 33 27 61 61 61c33 0 61 -28 61 -61c0 -34 -28 -61 -61 -61c-34 0 -61 27 -61 61z" />
    <glyph glyph-name="Scaron" unicode="&#x160;" horiz-adv-x="570" 
d="M544 630c0 -57 -31 -101 -83 -101c-16 0 -32 6 -45 21c27 16 45 53 45 86c0 35 -20 67 -73 67c-55 0 -93 -32 -93 -87c0 -157 225 -166 225 -389c0 -141 -104 -232 -265 -232c-80 0 -221 17 -221 161c0 94 70 144 147 144c45 0 73 -15 81 -51c-81 -7 -117 -41 -117 -110
c0 -67 52 -96 99 -96c79 0 110 69 110 143c0 188 -216 229 -216 378c0 105 119 186 238 186c53 0 168 -8 168 -120zM350 1000h32l60 -80l157 80h44l-212 -189h-21z" />
    <glyph glyph-name="quoteright" unicode="&#x2019;" horiz-adv-x="305" 
d="M84 678c0 38 32 70 73 70s64 -28 64 -66c0 -52 -45 -119 -121 -168c-7 4 -9 9 -9 14l49 70c0 6 -4 12 -12 17c-25 15 -44 35 -44 63z" />
    <glyph glyph-name="quoteleft" unicode="&#x2018;" horiz-adv-x="305" 
d="M221 678c0 -28 -19 -48 -44 -63c-8 -5 -12 -11 -12 -17l49 -70c0 -5 -2 -10 -9 -14c-76 49 -121 116 -121 168c0 38 23 66 64 66s73 -32 73 -70z" />
    <glyph glyph-name="quotedblright" unicode="&#x201d;" horiz-adv-x="509" 
d="M76 678c0 38 32 70 73 70s64 -28 64 -66c0 -52 -45 -119 -121 -168c-7 4 -9 9 -9 14l49 70c0 6 -4 12 -12 17c-25 15 -44 35 -44 63zM296 678c0 38 32 70 73 70s64 -28 64 -66c0 -52 -45 -119 -121 -168c-7 4 -9 9 -9 14l49 70c0 6 -4 12 -12 17c-25 15 -44 35 -44 63z
" />
    <glyph glyph-name="quotedblleft" unicode="&#x201c;" horiz-adv-x="509" 
d="M433 678c0 -28 -19 -48 -44 -63c-8 -5 -12 -11 -12 -17l49 -70c0 -5 -2 -10 -9 -14c-76 49 -121 116 -121 168c0 38 23 66 64 66s73 -32 73 -70zM213 678c0 -28 -19 -48 -44 -63c-8 -5 -12 -11 -12 -17l49 -70c0 -5 -2 -10 -9 -14c-76 49 -121 116 -121 168
c0 38 23 66 64 66s73 -32 73 -70z" />
    <glyph glyph-name="quotedblbase" unicode="&#x201e;" horiz-adv-x="509" 
d="M76 76c0 38 32 70 73 70s64 -28 64 -66c0 -52 -45 -119 -121 -168c-7 4 -9 9 -9 14l49 70c0 6 -4 12 -12 17c-25 15 -44 35 -44 63zM296 76c0 38 32 70 73 70s64 -28 64 -66c0 -52 -45 -119 -121 -168c-7 4 -9 9 -9 14l49 70c0 6 -4 12 -12 17c-25 15 -44 35 -44 63z" />
    <glyph glyph-name="quotedbl" unicode="&#x22;" horiz-adv-x="420" 
d="M62 561l61 189h105l-91 -189h-75zM219 561l61 189h105l-91 -189h-75z" />
    <glyph glyph-name="Zcaron" unicode="&#x17d;" horiz-adv-x="530" 
d="M404 78c-9 0 -18 11 -18 28c0 47 32 61 64 61c28 0 47 -26 47 -58c0 -51 -45 -109 -125 -109h-361l356 708c-23 1 -77 2 -100 2c-31 0 -82 -4 -82 -22c9 0 17 -12 17 -29c0 -47 -31 -60 -63 -60c-28 0 -47 26 -47 58c0 51 37 93 117 93h343l-348 -692
c23 -1 121 -2 145 -2c31 0 55 4 55 22zM313 1000h32l60 -80l157 80h44l-212 -189h-21z" />
    <glyph glyph-name="braceleft" unicode="{" horiz-adv-x="352" 
d="M383 750l-9 -50c-41 0 -69 -2 -91 -26c-36 -40 -45 -84 -46 -138l6 -171c-2 -58 -16 -91 -40 -111c7 -8 12 -20 12 -36c0 -89 -119 -242 -119 -342c0 -48 23 -80 85 -80l-9 -45h-9c-60 0 -88 1 -114 42c-14 21 -19 44 -19 67c0 94 91 201 117 315c2 8 3 16 3 22
c0 18 -9 31 -41 31c-9 0 -19 -1 -32 -3l12 57c12 -2 22 -3 31 -3c64 0 67 64 67 111c0 55 -7 108 -7 159c0 76 41 201 160 201h43z" />
    <glyph glyph-name="braceright" unicode="}" horiz-adv-x="352" 
d="M30 -249l9 50c41 0 69 2 91 26c36 40 45 84 46 138l-6 171c2 58 16 91 40 111c-7 8 -12 20 -12 36c0 89 119 242 119 342c0 48 -23 80 -85 80l9 45h9c60 0 88 -1 114 -42c14 -22 19 -44 19 -67c0 -94 -91 -201 -117 -315c-2 -8 -3 -16 -3 -22c0 -18 9 -31 41 -31
c9 0 19 1 32 3l-12 -57c-12 2 -22 3 -31 3c-64 0 -67 -64 -67 -111c0 -55 7 -108 7 -159c0 -76 -41 -201 -160 -201h-43z" />
    <glyph glyph-name="parenleft" unicode="(" horiz-adv-x="437" 
d="M464 750l13 -40c-149 -74 -266 -377 -266 -637c0 -114 22 -219 73 -294l-33 -29c-78 86 -113 214 -113 350c0 261 128 555 326 650z" />
    <glyph glyph-name="parenright" unicode=")" horiz-adv-x="413" 
d="M-16 -250l-13 40c149 74 266 376 266 637c0 113 -22 219 -73 294l33 29c78 -86 113 -214 113 -350c0 -262 -128 -555 -326 -650z" />
    <glyph glyph-name="asterisk" unicode="*" horiz-adv-x="515" 
d="M223 752h64v-135l107 62l30 -52l-109 -63l109 -63l-30 -52l-107 62v-135h-64v135l-107 -62l-30 52l109 63l-109 63l30 52l107 -62v135z" />
    <glyph glyph-name="bracketright" unicode="]" horiz-adv-x="400" 
d="M175 688l13 62h193l-212 -1000h-193l13 61h121l186 877h-121z" />
    <glyph glyph-name="backslash" unicode="\" horiz-adv-x="362" 
d="M254 -250l-212 1000h72l212 -1000h-72z" />
    <glyph glyph-name="quotesinglbase" unicode="&#x201a;" horiz-adv-x="283" 
d="M76 76c0 38 32 70 73 70s64 -28 64 -66c0 -52 -45 -119 -121 -168c-7 4 -9 9 -9 14l49 70c0 6 -4 12 -12 17c-25 15 -44 35 -44 63z" />
    <glyph glyph-name="multiply" unicode="&#xd7;" horiz-adv-x="515" 
d="M98 355l65 64l94 -95l96 96l64 -65l-95 -95l95 -95l-64 -65l-96 95l-94 -94l-65 64l95 95z" />
    <glyph glyph-name="trademark" unicode="&#x2122;" horiz-adv-x="379" 
d="M333 433h-43l27 156l-63 -156h-41v131l-40 -131h-24l68 210l41 6v-169l66 174h47zM107 628l-42 -195h-43l43 199c-34 -1 -60 -14 -60 -61c0 -15 3 -17 4 -20c-21 0 -32 8 -32 29c0 40 28 78 102 78c12 0 46 -5 75 -5c15 0 28 1 37 5c-5 -12 -5 -39 -24 -39
c-17 0 -38 6 -60 9z" />
    <glyph glyph-name="florin" unicode="&#x192;" horiz-adv-x="271" 
d="M209 460l-114 -540c-30 -143 -113 -170 -179 -170c-61 0 -118 43 -118 108c0 92 77 121 172 150l96 452h-60l8 40h60l17 79c31 143 115 170 182 170c61 0 118 -43 118 -108c0 -16 -1 -29 -3 -41h-47c1 10 2 18 2 27c0 23 -18 34 -38 34c-22 0 -56 -15 -70 -82l-17 -79h74
l-8 -40h-75zM-147 -128c0 -14 18 -33 40 -33c21 0 44 19 57 78l13 58c-63 -21 -110 -49 -110 -103z" />
    <glyph glyph-name="oslash" unicode="&#xf8;" horiz-adv-x="418" 
d="M181 -2l-52 -248h-52l52 245c-95 5 -136 50 -136 163c0 235 114 342 245 351l51 241h52l-52 -244c68 -15 87 -80 88 -143c6 -6 15 -9 29 -9c47 0 68 34 105 49l4 -21c-31 -39 -83 -72 -141 -88c-17 -177 -104 -276 -193 -296zM126 167c0 -36 9 -56 25 -66l72 338
c-68 -44 -97 -204 -97 -272zM258 329c0 29 17 60 44 70c-2 25 -9 42 -25 49l-76 -356c56 8 88 99 99 192c-29 0 -42 21 -42 45z" />
    <glyph glyph-name="Oslash" unicode="&#xd8;" horiz-adv-x="658" 
d="M330 -9l-51 -241h-52l51 243c-95 6 -151 39 -151 173c0 187 67 446 214 446c15 0 30 -3 47 -8c-82 -108 -135 -255 -135 -419c0 -58 14 -92 44 -104l120 564c-14 4 -30 7 -48 7c-162 0 -270 -91 -270 -243c0 -51 13 -59 14 -68c-69 0 -107 25 -107 97
c0 133 184 260 351 260c25 0 48 -2 70 -6l12 58h52l-15 -70c110 -38 155 -134 155 -267c0 -211 -120 -422 -301 -422zM515 434c0 73 -9 145 -52 185l-115 -543c81 19 167 174 167 358z" />
    <glyph glyph-name="AE" unicode="&#xc6;" horiz-adv-x="764" 
d="M760 0h-369l77 363c-51 22 -92 33 -135 36c-75 -162 -129 -352 -129 -456c0 -51 13 -47 14 -56c-69 4 -134 6 -134 112c0 85 59 248 147 400c-60 -4 -103 -16 -117 -52c5 0 13 -17 13 -31c0 -21 -18 -39 -61 -39c-29 0 -57 18 -57 63c0 61 92 115 195 115
c17 0 37 -1 59 -3c101 162 231 299 349 299c55 0 110 -20 180 -20c35 0 73 5 117 19c-15 -44 -24 -110 -108 -110c-50 0 -85 17 -123 32l-54 -253h155l-20 -74h-151l-51 -239h224zM477 407l58 272c-61 -33 -126 -126 -182 -238c42 -8 85 -19 124 -34z" />
    <glyph glyph-name="ampersand" unicode="&#x26;" horiz-adv-x="682" 
d="M676 413h6c0 -55 -70 -125 -152 -139c-76 -274 -214 -280 -312 -280c-138 0 -207 99 -207 202c0 96 60 196 181 221c-68 37 -99 95 -99 152c0 91 80 181 222 181c93 0 184 -37 184 -134c0 -53 -19 -92 -70 -92c-16 0 -38 4 -57 26c25 7 44 57 44 82c0 16 -2 74 -66 74
c-73 0 -122 -56 -122 -123c0 -58 38 -123 132 -165c-127 -52 -174 -132 -174 -201c0 -73 53 -133 117 -133c70 0 150 42 181 189c-25 1 -48 5 -71 5c-44 0 -75 -15 -94 -45l-7 1c20 82 90 141 193 141c28 0 51 -5 76 -5c37 0 78 13 95 43z" />
    <glyph glyph-name="question" unicode="?" horiz-adv-x="441" 
d="M425 579c0 -193 -191 -198 -240 -347h-66c0 141 182 193 182 345c0 49 -26 69 -55 69c-38 0 -80 -33 -80 -83c0 -23 10 -58 38 -66c-17 -28 -45 -42 -73 -42c-39 0 -76 28 -76 84c0 68 59 161 210 161c137 0 160 -54 160 -121zM207 80c0 -44 -35 -80 -79 -80
s-80 36 -80 80s36 79 80 79s79 -35 79 -79z" />
    <glyph glyph-name="questiondown" unicode="&#xbf;" horiz-adv-x="439" 
d="M12 -128c0 186 177 197 241 349h66c0 -141 -182 -193 -182 -345c0 -49 26 -69 55 -69c38 0 80 33 80 83c0 23 -10 58 -38 66c17 28 45 42 73 42c39 0 76 -28 76 -84c0 -68 -59 -161 -210 -161c-127 0 -161 57 -161 119zM231 372c0 45 35 81 79 81s80 -36 80 -81
c0 -44 -36 -79 -80 -79s-79 35 -79 79z" />
    <glyph glyph-name="germandbls" unicode="&#xdf;" horiz-adv-x="450" 
d="M225 530l-159 -744l-151 -36l166 780c30 143 116 170 182 170c93 0 137 -61 137 -127c0 -57 -32 -118 -92 -146c71 -24 97 -82 97 -142c0 -15 -2 -30 -5 -45c-41 -201 -104 -240 -185 -240c-11 0 -22 1 -33 2l13 59c41 8 69 27 99 171c6 28 10 53 10 74
c0 44 -18 73 -72 87l18 58c41 17 83 52 83 111c0 39 -12 50 -38 50c-22 0 -56 -15 -70 -82z" />
    <glyph glyph-name="less" unicode="&#x3c;" horiz-adv-x="359" 
d="M336 429l-10 -55l-241 -120l194 -96l-12 -57l-247 137l9 41z" />
    <glyph glyph-name="greater" unicode="&#x3e;" horiz-adv-x="344" 
d="M75 374l9 55l246 -150l-11 -54l-304 -124l14 57l240 96z" />
    <glyph glyph-name="guillemotleft" unicode="&#xab;" horiz-adv-x="589" 
d="M336 429l-10 -55l-241 -120l194 -96l-12 -57l-247 137l9 41zM546 429l-10 -55l-241 -120l194 -96l-12 -57l-247 137l9 41z" />
    <glyph glyph-name="guillemotright" unicode="&#xbb;" horiz-adv-x="586" 
d="M75 374l9 55l246 -150l-11 -54l-304 -124l14 57l240 96zM297 374l9 55l246 -150l-11 -54l-304 -124l14 57l240 96z" />
    <glyph glyph-name="mu" unicode="&#xb5;" horiz-adv-x="520" 
d="M64 500h144l-72 -340c-2 -11 -4 -22 -4 -31c0 -22 10 -38 50 -38c21 0 46 16 71 36c1 10 3 21 6 33l72 340h144l-72 -340c-2 -11 -4 -22 -4 -31c0 -22 10 -38 50 -38s92 56 132 88h34c-46 -46 -159 -179 -237 -179c-68 0 -114 26 -123 84c-47 -44 -101 -84 -144 -84h-9
l-28 -131l-151 -36z" />
    <glyph glyph-name="paragraph" unicode="&#xb6;" horiz-adv-x="542" 
d="M239 -81h-94l77 369c-101 20 -150 109 -150 204c0 124 85 257 250 257c100 0 185 -44 185 -165c0 -22 -3 -46 -8 -72l-127 -593h-94l81 380c-15 -5 -29 -8 -43 -11zM327 339h6c12 0 24 1 35 4l48 227c4 19 6 35 6 49c0 31 -9 50 -23 63z" />
    <glyph glyph-name="Eth" unicode="&#xd0;" horiz-adv-x="663" 
d="M230 636l148 20l-51 -237h79l-20 -74h-75l-53 -250c19 -14 38 -20 57 -20c119 0 192 241 192 433c0 125 -23 196 -138 196c-162 0 -270 -91 -270 -243c0 -51 13 -59 14 -68c-69 0 -107 25 -107 97c0 133 184 260 351 260c231 0 288 -129 288 -270
c0 -258 -129 -493 -277 -493c-38 0 -79 16 -122 53l-8 -40h-144l74 345h-39l20 74h35z" />
    <glyph glyph-name="eth" unicode="&#xf0;" horiz-adv-x="510" 
d="M283 700h45c43 -24 84 -51 107 -99h74l-8 -40h-53c3 -16 5 -35 5 -55c0 -27 -3 -57 -10 -91l-54 -255c-2 -11 -5 -22 -5 -32c0 -22 11 -37 50 -37c40 0 92 56 132 88h34c-46 -46 -159 -179 -237 -179c-65 0 -108 24 -121 76c-30 -41 -75 -82 -136 -82
c-96 0 -124 68 -124 127c0 172 62 378 262 378c24 0 49 -11 67 -26l3 12c6 28 10 53 11 76h-66l8 40h58c-4 35 -17 66 -42 99zM252 443c-75 0 -135 -159 -135 -295c0 -60 33 -71 58 -71c23 0 45 22 64 50c1 10 3 21 6 33l56 265c-16 14 -35 18 -49 18z" />
    <glyph glyph-name="thorn" unicode="&#xfe;" horiz-adv-x="455" 
d="M-96 -250l156 735c8 36 12 67 12 93c0 46 -13 82 -43 122h45c55 -30 106 -65 121 -143c24 13 50 22 78 22c104 0 153 -37 153 -140c0 -21 -2 -44 -6 -70c-31 -215 -117 -288 -219 -288c-27 0 -54 7 -79 21l-67 -316zM185 155c50 0 74 43 107 202c9 44 13 77 13 101
c0 60 -24 72 -56 72c-16 0 -33 -6 -49 -16c0 -28 -3 -61 -11 -99l-54 -251c19 -9 38 -9 50 -9z" />
    <glyph glyph-name="Thorn" unicode="&#xde;" horiz-adv-x="583" 
d="M250 730l148 20l-24 -111c151 -7 218 -97 218 -196c0 -127 -109 -268 -288 -268h-29l-37 -175h-144l120 562c-74 -39 -115 -112 -115 -211c0 -51 13 -59 14 -68c-69 0 -107 25 -107 97c0 98 100 193 219 236zM288 212h9c105 0 185 136 185 246c0 72 -34 133 -118 136
l-83 -390c2 3 4 5 7 8z" />
    <glyph glyph-name="section" unicode="&#xa7;" horiz-adv-x="542" 
d="M525 654c0 -45 -25 -80 -67 -80c-12 0 -25 4 -36 16c22 13 36 43 36 69c0 28 -16 54 -58 54c-52 0 -92 -56 -92 -100c0 -136 198 -150 198 -303c0 -85 -42 -160 -116 -174v-4c0 -113 -84 -186 -212 -186c-64 0 -170 14 -170 129c0 75 39 125 100 125c36 0 64 -35 75 -50
c-65 -6 -81 -28 -81 -83c0 -45 24 -71 76 -71c68 0 86 42 86 103c0 151 -180 169 -180 303c0 60 44 110 104 133c-3 15 -5 30 -5 48c0 108 112 167 207 167c43 0 135 -6 135 -96zM403 246c0 118 -136 147 -194 242c-12 -12 -19 -27 -19 -45c0 -68 161 -121 194 -260
c12 15 19 38 19 63z" />
    <glyph glyph-name="uni00AD" unicode="&#xad;" horiz-adv-x="290" 
d="M237 301l-17 -79h-201l18 79h200z" />
    <glyph glyph-name="currency" unicode="&#xa4;" horiz-adv-x="500" 
d="M68 492l38 36l56 -56c26 19 57 30 91 30c33 0 64 -11 89 -29l56 56l36 -36l-55 -55c19 -26 30 -58 30 -92s-11 -65 -30 -91l55 -55l-36 -36l-55 55c-25 -18 -56 -29 -90 -29s-66 11 -92 30l-56 -56l-36 36l56 56c-18 25 -29 56 -29 89c0 34 11 65 29 90zM253 446
c-55 0 -100 -45 -100 -100s45 -100 100 -100s100 45 100 100s-45 100 -100 100z" />
    <glyph glyph-name="zero" unicode="0" horiz-adv-x="546" 
d="M377 750c125 0 178 -93 178 -261c0 -199 -113 -498 -318 -498c-172 0 -207 97 -207 263c0 273 132 496 347 496zM188 325c-2 -27 -5 -62 -5 -99c0 -74 11 -151 59 -151c114 0 182 246 182 478c0 82 -7 145 -54 145c-60 0 -165 -148 -182 -373z" />
    <glyph glyph-name="one" unicode="1" horiz-adv-x="317" 
d="M324 748l-159 -748h-144l132 624h-95l12 46c55 0 133 6 254 78z" />
    <glyph glyph-name="two" unicode="2" horiz-adv-x="492" 
d="M286 114c73 0 94 16 150 69c1 -16 1 -30 1 -44c0 -99 -20 -150 -119 -150c-109 0 -146 36 -248 36c-23 0 -59 -21 -79 -28c-2 11 -3 22 -3 32c0 219 330 318 330 584c0 49 -32 82 -61 82c-67 0 -81 -31 -81 -81c0 -23 10 -60 38 -68c-26 -23 -53 -34 -77 -34
c-40 0 -71 32 -71 90c0 68 55 147 206 147c137 0 190 -64 190 -161c0 -223 -273 -321 -356 -456c43 0 100 -14 180 -18z" />
    <glyph glyph-name="three" unicode="3" horiz-adv-x="514" 
d="M205 257c-81 -7 -88 -68 -88 -118c0 -67 36 -81 89 -81c72 0 122 85 122 174c0 76 -37 155 -129 186c116 31 170 128 170 198c0 45 -21 79 -63 79c-67 0 -91 -31 -91 -81c0 -23 10 -60 38 -68c-26 -23 -53 -34 -77 -34c-40 0 -71 32 -71 90c0 68 65 147 216 147
c114 0 176 -68 176 -147c0 -66 -44 -139 -136 -185c87 -27 124 -91 124 -162c0 -121 -109 -260 -258 -260c-80 0 -221 17 -221 161c0 94 41 152 118 152c45 0 73 -15 81 -51z" />
    <glyph glyph-name="four" unicode="4" horiz-adv-x="476" 
d="M252 275h-244c36 110 146 269 146 415c0 20 -2 40 -7 60c58 0 111 -32 111 -95c0 -127 -94 -211 -146 -306h156l81 381l148 20l-86 -401h64l-20 -74h-60l-58 -275h-144z" />
    <glyph glyph-name="five" unicode="5" horiz-adv-x="517" 
d="M500 749c1 -11 2 -22 2 -33c0 -67 -34 -116 -110 -116c-63 0 -127 20 -172 25l-40 -181c46 22 88 31 124 31c122 0 177 -94 177 -209c0 -135 -94 -271 -277 -271c-94 0 -189 15 -189 150c0 94 70 136 126 136c45 0 67 -15 75 -51c-53 -7 -90 -33 -90 -102
c0 -59 45 -78 90 -78c83 0 119 108 119 210c0 62 -34 131 -109 131c-55 0 -112 -32 -150 -56l82 399c70 -8 125 -17 180 -17c51 0 101 8 162 32z" />
    <glyph glyph-name="six" unicode="6" horiz-adv-x="497" 
d="M225 305c-14 20 -20 40 -20 58c0 58 65 100 141 100c95 0 135 -87 135 -165c0 -171 -124 -303 -270 -303c-160 0 -195 92 -195 198c0 12 0 24 1 37c20 301 135 520 357 520c75 0 115 -43 115 -82c0 -34 -28 -65 -89 -68c11 10 16 23 16 36c0 27 -21 54 -50 54
c-26 0 -169 -16 -211 -432c-3 -31 -5 -56 -5 -78c0 -101 34 -119 83 -119c64 0 133 116 133 223c0 41 -10 97 -53 97c-37 0 -65 -29 -88 -76z" />
    <glyph glyph-name="seven" unicode="7" horiz-adv-x="464" 
d="M184 750h328c-52 -77 -273 -420 -301 -485c-22 -50 -32 -93 -32 -129c0 -40 13 -67 49 -97c-12 -32 -50 -39 -92 -39c-60 0 -103 23 -103 125c0 163 147 338 315 532c-29 4 -57 6 -84 6c-87 0 -163 -21 -208 -71c-5 21 -8 41 -8 58c0 65 38 100 136 100z" />
    <glyph glyph-name="nine" unicode="9" horiz-adv-x="489" 
d="M288 424c14 -17 21 -34 21 -50c0 -50 -60 -92 -134 -92c-100 0 -141 95 -141 175c0 166 114 293 259 293c155 0 193 -109 193 -235c0 -301 -128 -520 -339 -520c-77 0 -120 45 -120 85c0 32 27 62 87 65c-10 -10 -14 -22 -14 -34c0 -28 21 -56 51 -56
c26 0 179 16 210 432c1 19 2 36 2 52c0 124 -35 145 -88 145c-65 0 -127 -113 -127 -217c0 -42 10 -103 56 -103c37 0 66 13 84 60z" />
    <glyph glyph-name="eight" unicode="8" horiz-adv-x="499" 
d="M208 58c68 0 115 85 115 174c0 56 -19 113 -63 151c-83 -55 -123 -152 -123 -225c0 -57 24 -100 71 -100zM203 -5c-137 0 -211 98 -211 201c0 91 58 187 180 221c-59 34 -85 84 -85 136c0 96 91 196 223 196c126 0 189 -67 189 -145c0 -67 -47 -142 -140 -187
c85 -26 121 -88 121 -156c0 -122 -116 -266 -277 -266zM271 451c67 44 101 123 101 181c0 43 -18 72 -52 72c-65 0 -102 -64 -102 -132c0 -45 17 -91 53 -121z" />
    <glyph glyph-name="ordfeminine" unicode="&#xaa;" horiz-adv-x="345" 
d="M320 740l-42 -184c-1 -6 -3 -12 -3 -18c0 -11 5 -20 21 -20c4 0 10 0 15 2c-16 -47 -40 -50 -60 -50c-34 0 -52 16 -58 41c-17 -22 -43 -44 -79 -44c-55 0 -71 36 -71 68c0 93 36 204 152 204c13 0 28 -6 39 -14l3 15h83zM195 556l33 143c-9 8 -20 10 -29 10
c-43 0 -78 -86 -78 -159c0 -32 19 -38 34 -38c19 0 31 17 40 44z" />
    <glyph glyph-name="ordmasculine" unicode="&#xba;" horiz-adv-x="329" 
d="M262 676v-5c15 9 20 18 33 32l6 -11c-6 -19 -16 -44 -39 -57c-6 -112 -75 -169 -129 -169c-62 0 -91 25 -91 89c0 132 73 190 152 190c28 0 55 -10 55 -24c0 -16 -14 -22 -26 -26c-5 12 -13 19 -26 19c-57 0 -78 -111 -78 -154c0 -32 17 -41 41 -41c33 0 55 59 60 108
c-12 2 -16 11 -16 22c0 19 20 41 39 41c11 0 19 -3 19 -14z" />
    <glyph glyph-name="onesuperior" unicode="&#xb9;" horiz-adv-x="217" 
d="M198 749l-92 -404h-84l77 337h-55l7 25c32 0 77 3 147 42z" />
    <glyph glyph-name="threesuperior" unicode="&#xb3;" horiz-adv-x="316" 
d="M129 484c-47 -4 -51 -37 -51 -64c0 -36 21 -44 51 -44c42 0 71 46 71 94c0 41 -22 84 -75 101c67 16 99 69 99 107c0 24 -13 42 -37 42c-38 0 -52 -16 -52 -43c0 -13 6 -33 22 -37c-15 -13 -31 -19 -45 -19c-23 0 -41 17 -41 49c0 37 38 79 125 79c67 0 102 -37 102 -79
c0 -36 -25 -75 -79 -100c51 -15 72 -49 72 -88c0 -65 -63 -140 -149 -140c-47 0 -129 9 -129 87c0 51 24 82 69 82c26 0 42 -8 47 -27z" />
    <glyph glyph-name="twosuperior" unicode="&#xb2;" horiz-adv-x="300" 
d="M176 407c35 0 54 7 87 37c0 -69 -1 -105 -69 -105c-63 0 -84 20 -143 20c-14 0 -35 -12 -46 -16c-1 6 -2 12 -2 18c0 118 191 171 191 315c0 26 -18 44 -35 44c-39 0 -47 -16 -47 -43c0 -13 6 -33 22 -37c-15 -13 -31 -19 -45 -19c-23 0 -41 17 -41 49c0 37 32 79 120 79
c79 0 110 -34 110 -86c0 -121 -159 -174 -207 -247c25 0 58 -7 105 -9z" />
    <glyph glyph-name="onehalf" unicode="&#xbd;" horiz-adv-x="675" 
d="M470 750l-264 -915h-72l264 915h72zM539 67c35 0 54 7 87 37c0 -69 -1 -105 -69 -105c-63 0 -84 20 -143 20c-14 0 -35 -12 -46 -16c-1 6 -2 12 -2 18c0 118 191 171 191 315c0 26 -18 44 -35 44c-39 0 -47 -16 -47 -43c0 -13 6 -33 22 -37c-15 -13 -31 -19 -45 -19
c-23 0 -41 17 -41 49c0 37 32 79 120 79c79 0 110 -34 110 -86c0 -121 -159 -174 -207 -247c25 0 58 -7 105 -9zM246 629l-92 -404h-84l77 337h-55l7 25c32 0 77 3 147 42z" />
    <glyph glyph-name="onequarter" unicode="&#xbc;" horiz-adv-x="689" 
d="M475 750l-264 -915h-72l264 915h72zM515 150h-141c20 59 84 144 84 223c0 11 -1 22 -4 33c34 0 65 -17 65 -51c0 -69 -56 -115 -85 -166h90l47 206l86 11l-50 -217h38l-12 -39h-35l-34 -149h-83zM246 629l-92 -404h-84l77 337h-55l7 25c32 0 77 3 147 42z" />
    <glyph glyph-name="threequarters" unicode="&#xbe;" horiz-adv-x="819" 
d="M591 750l-264 -915h-72l264 915h72zM177 364c-47 -4 -51 -37 -51 -64c0 -36 21 -44 51 -44c42 0 71 46 71 94c0 41 -22 84 -75 101c67 16 99 69 99 107c0 24 -13 42 -37 42c-38 0 -52 -16 -52 -43c0 -13 6 -33 22 -37c-15 -13 -31 -19 -45 -19c-23 0 -41 17 -41 49
c0 37 38 79 125 79c67 0 102 -37 102 -79c0 -36 -25 -75 -79 -100c51 -15 72 -49 72 -88c0 -65 -63 -140 -149 -140c-47 0 -129 9 -129 87c0 51 24 82 69 82c26 0 42 -8 47 -27zM634 150h-141c20 59 84 144 84 223c0 11 -1 22 -4 33c34 0 65 -17 65 -51
c0 -69 -56 -115 -85 -166h90l47 206l86 11l-50 -217h38l-12 -39h-35l-34 -149h-83z" />
    <glyph glyph-name="percent" unicode="%" horiz-adv-x="644" 
d="M579 750l-386 -750h-72l386 750h72zM269 702c58 0 82 -40 82 -113c0 -85 -52 -215 -148 -215c-78 0 -96 42 -96 114c0 118 62 214 162 214zM181 519c-1 -12 -2 -27 -2 -43c0 -32 5 -65 27 -65c53 0 85 92 85 193c0 35 -4 63 -25 63c-28 0 -77 -51 -85 -148zM517 328
c58 0 92 -40 92 -113c0 -85 -42 -215 -158 -215c-78 0 -96 42 -96 114c0 118 62 214 162 214zM424 145c-1 -12 -2 -27 -2 -43c0 -32 5 -65 27 -65c53 0 82 85 82 186c0 35 -7 68 -28 68c-28 0 -71 -49 -79 -146z" />
    <glyph glyph-name="degree" unicode="&#xb0;" horiz-adv-x="314" 
d="M199 702c58 0 82 -40 82 -113c0 -85 -52 -215 -148 -215c-78 0 -96 42 -96 114c0 118 62 214 162 214zM111 519c-1 -12 -2 -27 -2 -43c0 -32 5 -65 27 -65c53 0 85 92 85 193c0 35 -4 63 -25 63c-28 0 -77 -51 -85 -148z" />
    <glyph glyph-name="yen" unicode="&#xa5;" horiz-adv-x="474" 
d="M314 307h131l-14 -50h-128l-14 -65h131l-14 -50h-128l-30 -142h-160l30 142h-99l14 50h96l14 65h-99l14 50h96l-112 443h164l88 -361l150 361h66z" />
    <glyph glyph-name="sterling" unicode="&#xa3;" horiz-adv-x="465" 
d="M420 423l6 -1c-11 -47 -85 -100 -161 -100h-16l-56 -231c70 9 126 -13 234 67c-10 -96 -50 -158 -104 -158h-295l86 358c-5 1 -11 1 -17 1c-26 0 -48 -9 -66 -26l-6 2c22 45 59 75 105 89l72 295l150 31l-80 -331c28 -9 53 -19 85 -19c25 0 49 8 63 23z" />
    <glyph glyph-name="perthousand" unicode="&#x2030;" horiz-adv-x="911" 
d="M562 750l-386 -750h-72l386 750h72zM252 702c58 0 82 -40 82 -113c0 -85 -52 -215 -148 -215c-78 0 -96 42 -96 114c0 118 62 214 162 214zM164 519c-1 -12 -2 -27 -2 -43c0 -32 5 -65 27 -65c53 0 85 92 85 193c0 35 -4 63 -25 63c-28 0 -77 -51 -85 -148zM500 328
c58 0 92 -40 92 -113c0 -85 -42 -215 -158 -215c-78 0 -96 42 -96 114c0 118 62 214 162 214zM407 145c-1 -12 -2 -27 -2 -43c0 -32 5 -65 27 -65c53 0 82 85 82 186c0 35 -7 68 -28 68c-28 0 -71 -49 -79 -146zM788 328c58 0 92 -40 92 -113c0 -85 -42 -215 -158 -215
c-78 0 -96 42 -96 114c0 118 62 214 162 214zM695 145c-1 -12 -2 -27 -2 -43c0 -32 5 -65 27 -65c53 0 82 85 82 186c0 35 -7 68 -28 68c-28 0 -71 -49 -79 -146z" />
    <glyph glyph-name="guilsinglleft" unicode="&#x2039;" horiz-adv-x="359" 
d="M336 449l-10 -55l-241 -140l194 -116l-12 -57l-247 157l9 41z" />
    <glyph glyph-name="guilsinglright" unicode="&#x203a;" horiz-adv-x="344" 
d="M75 394l9 55l246 -170l-11 -54l-304 -144l14 57l240 116z" />
    <glyph glyph-name="oe" unicode="&#x153;" horiz-adv-x="773" 
d="M256 510c95 0 119 -74 121 -147c6 -6 15 -9 29 -9c13 0 24 2 34 6c35 82 96 149 196 149c82 0 128 -34 128 -104c0 -122 -131 -192 -226 -204c-2 -16 -3 -31 -3 -43c0 -66 43 -86 82 -86c49 0 133 58 168 132h45c-57 -103 -153 -204 -282 -204c-96 0 -148 73 -148 159
c0 44 6 99 22 153c-15 -7 -31 -13 -48 -18c-19 -201 -128 -300 -228 -300c-107 0 -153 45 -153 164c0 246 125 352 263 352zM193 91c61 0 95 96 107 193c-29 0 -42 21 -42 45c0 29 17 60 44 70c-3 33 -14 52 -42 52c-94 0 -134 -204 -134 -284c0 -60 28 -76 67 -76zM704 400
c0 21 -5 56 -35 56c-56 0 -102 -113 -123 -207c92 1 157 80 158 151z" />
    <glyph glyph-name="OE" unicode="&#x152;" horiz-adv-x="1117" 
d="M630 419h154l-20 -74h-149l-52 -239h223l-21 -106h-369l1 4c-21 -8 -43 -13 -65 -13c-128 0 -205 60 -205 226c0 187 66 447 214 447c15 0 30 -3 47 -8c-82 -108 -135 -255 -135 -419c0 -86 24 -162 79 -162c86 0 183 238 183 425c0 110 -20 204 -146 204
c-162 0 -270 -91 -270 -243c0 -51 13 -59 14 -68c-69 0 -107 25 -107 97c0 133 184 260 351 260c56 0 102 -8 140 -23c44 14 97 23 161 23c40 0 103 -12 166 -12c31 0 62 3 90 12c-14 -42 -17 -103 -95 -120c-46 0 -93 9 -140 19z" />
    </font>
</defs>
</svg>
