<?xml version="1.0" standalone="no"?>
<!DOCTYPE svg PUBLIC "-//W3C//DTD SVG 1.1//EN" "http://www.w3.org/Graphics/SVG/1.1/DTD/svg11.dtd" >
<svg xmlns="http://www.w3.org/2000/svg" xmlns:xlink="http://www.w3.org/1999/xlink" version="1.1">
<metadata>
Created by FontForge 20160407 at Wed Oct 26 07:12:12 2016
 By Jimmy Wärting
copyright missing
</metadata>
<defs>
<font id="LeagueSpartan-Bold" horiz-adv-x="683" >
  <font-face 
    font-family="League Spartan"
    font-weight="700"
    font-stretch="normal"
    units-per-em="1000"
    panose-1="0 0 8 0 0 0 0 0 0 0"
    ascent="750"
    descent="-250"
    x-height="513"
    cap-height="825"
    bbox="-167 -351 1446 1187"
    underline-thickness="50"
    underline-position="-100"
    stemh="188"
    stemv="860"
    unicode-range="U+0020-FB04"
  />
<missing-glyph horiz-adv-x="342" 
 />
    <glyph glyph-name=".notdef" horiz-adv-x="342" 
 />
    <glyph glyph-name="A" unicode="A" horiz-adv-x="784" 
d="M479 825l333 -825h-202l-61 165h-314l-61 -165h-202l333 825h174zM485 330l-92 240h-2l-92 -240h186z" />
    <glyph glyph-name="Aacute" unicode="&#xc1;" horiz-adv-x="784" 
d="M333 976l203 176l91 -115l-238 -138zM479 825l333 -825h-202l-61 165h-314l-61 -165h-202l333 825h174zM485 330l-92 240h-2l-92 -240h186z" />
    <glyph glyph-name="Abreve" unicode="&#x102;" horiz-adv-x="784" 
d="M497 1152l126 -31c-12 -107 -102 -181 -231 -181s-219 74 -231 181l126 31s11 -103 105 -103s105 103 105 103zM479 825l333 -825h-202l-61 165h-314l-61 -165h-202l333 825h174zM485 330l-92 240h-2l-92 -240h186z" />
    <glyph glyph-name="Acircumflex" unicode="&#xc2;" horiz-adv-x="784" 
d="M171 990l221 162l221 -162l-68 -91l-153 112l-153 -112zM479 825l333 -825h-202l-61 165h-314l-61 -165h-202l333 825h174zM485 330l-92 240h-2l-92 -240h186z" />
    <glyph glyph-name="Adieresis" unicode="&#xc4;" horiz-adv-x="784" 
d="M273 1103c51 0 92 -41 92 -92s-41 -92 -92 -92s-92 41 -92 92s41 92 92 92zM510 1103c51 0 92 -41 92 -92s-41 -92 -92 -92s-92 41 -92 92s41 92 92 92zM479 825l333 -825h-202l-61 165h-314l-61 -165h-202l333 825h174zM485 330l-92 240h-2l-92 -240h186z" />
    <glyph glyph-name="Agrave" unicode="&#xc0;" horiz-adv-x="784" 
d="M247 1152l203 -176l-56 -77l-238 138zM479 825l333 -825h-202l-61 165h-314l-61 -165h-202l333 825h174zM485 330l-92 240h-2l-92 -240h186z" />
    <glyph glyph-name="Amacron" unicode="&#x100;" horiz-adv-x="784" 
d="M188 1066h408v-120h-408v120zM479 825l333 -825h-202l-61 165h-314l-61 -165h-202l333 825h174zM485 330l-92 240h-2l-92 -240h186z" />
    <glyph glyph-name="Aogonek" unicode="&#x104;" horiz-adv-x="784" 
d="M549 -158c0 55 50 122 80 158h-19l-61 165h-314l-61 -165h-202l333 825h174l333 -825h-101s-59 -70 -59 -140c0 -25 20 -39 37 -39c31 0 51 30 51 30l72 -54s-45 -72 -137 -72c-52 0 -126 30 -126 117zM485 330l-92 240h-2l-92 -240h186z" />
    <glyph glyph-name="Aring" unicode="&#xc5;" horiz-adv-x="784" 
d="M231 1045c0 83 71 142 161 142c91 0 161 -59 161 -142c0 -84 -67 -143 -161 -143c-96 0 -161 59 -161 143zM331 1045c0 -35 25 -64 61 -64c35 0 61 29 61 64c0 34 -27 62 -61 62c-33 0 -61 -28 -61 -62zM479 825l333 -825h-202l-61 165h-314l-61 -165h-202l333 825h174z
M485 330l-92 240h-2l-92 -240h186z" />
    <glyph glyph-name="Atilde" unicode="&#xc3;" horiz-adv-x="784" 
d="M383 954c0 0 -40 19 -76 19c-32 0 -45 -46 -45 -46h-101s26 172 136 172c39 0 104 -27 104 -27s40 -19 76 -19c32 0 45 46 45 46h101s-26 -172 -136 -172c-39 0 -104 27 -104 27zM479 825l333 -825h-202l-61 165h-314l-61 -165h-202l333 825h174zM485 330l-92 240h-2
l-92 -240h186z" />
    <glyph glyph-name="AE" unicode="&#xc6;" horiz-adv-x="980" 
d="M267 165l-70 -165h-202l377 825h560v-165h-284v-164h272v-165h-272v-166h284v-165h-472v165h-193zM460 330v302h-2l-125 -302h127z" />
    <glyph glyph-name="B" unicode="B" horiz-adv-x="666" 
d="M60 825h256c142 0 254 -53 254 -210c0 -76 -33 -141 -103 -177c103 -18 176 -75 176 -208c0 -136 -99 -230 -270 -230h-313v825zM248 502h15c81 0 125 25 125 94c0 59 -43 84 -125 84h-15v-178zM248 145h59c89 0 138 27 138 92c0 76 -49 103 -138 103h-59v-195z" />
    <glyph glyph-name="C" unicode="C" horiz-adv-x="753" 
d="M499 170c96 0 162 51 162 51l80 -160s-92 -76 -271 -76c-233 0 -447 190 -447 426c0 237 213 429 447 429c179 0 271 -76 271 -76l-80 -160s-66 51 -162 51c-189 0 -272 -132 -272 -242c0 -111 83 -243 272 -243z" />
    <glyph glyph-name="Cacute" unicode="&#x106;" horiz-adv-x="753" 
d="M271 976l203 176l91 -115l-238 -138zM499 170c-189 0 -272 132 -272 243c0 110 83 242 272 242c96 0 162 -51 162 -51l80 160s-92 76 -271 76c-234 0 -447 -192 -447 -429c0 -236 214 -426 447 -426c179 0 271 76 271 76l-80 160s-66 -51 -162 -51z" />
    <glyph glyph-name="Ccaron" unicode="&#x10c;" horiz-adv-x="753" 
d="M288 1152l153 -112l153 112l68 -91l-221 -162l-221 162zM499 170c-189 0 -272 132 -272 243c0 110 83 242 272 242c96 0 162 -51 162 -51l80 160s-92 76 -271 76c-234 0 -447 -192 -447 -429c0 -236 214 -426 447 -426c179 0 271 76 271 76l-80 160s-66 -51 -162 -51z
" />
    <glyph glyph-name="Ccedilla" unicode="&#xc7;" horiz-adv-x="753" 
d="M499 170c96 0 162 51 162 51l80 -160s-92 -76 -271 -76c-20 0 -40 1 -60 4l-17 -52c55 0 129 -33 129 -102c0 -63 -41 -129 -152 -129c-90 0 -154 83 -154 83l72 54s36 -47 82 -47c37 0 50 20 50 39c0 31 -34 45 -62 45c-36 0 -51 -9 -51 -9l-10 8l41 126
c-176 55 -315 215 -315 406c0 237 213 429 447 429c179 0 271 -76 271 -76l-80 -160s-66 51 -162 51c-189 0 -272 -132 -272 -242c0 -111 83 -243 272 -243z" />
    <glyph glyph-name="D" unicode="D" horiz-adv-x="738" 
d="M60 825h239c226 0 416 -172 416 -412c0 -241 -189 -413 -416 -413h-239v825zM248 168h29c139 0 234 106 235 244c0 138 -95 245 -235 245h-29v-489z" />
    <glyph glyph-name="Eth" unicode="&#xd0;" horiz-adv-x="776" 
d="M16 336v153h82v336h239c227 0 416 -172 416 -413c-1 -241 -190 -412 -416 -412h-239v336h-82zM550 413c-1 137 -96 244 -235 244h-29v-168h109v-153h-109v-168h29c140 0 235 107 235 245z" />
    <glyph glyph-name="Dcaron" unicode="&#x10e;" horiz-adv-x="738" 
d="M207 1152l153 -112l153 112l68 -91l-221 -162l-221 162zM60 825h239c226 0 416 -172 416 -412c0 -241 -189 -413 -416 -413h-239v825zM248 168h29c139 0 234 106 235 244c0 138 -95 245 -235 245h-29v-489z" />
    <glyph glyph-name="Dcroat" unicode="&#x110;" horiz-adv-x="776" 
d="M98 489v336h239c226 0 416 -172 416 -412c0 -241 -189 -413 -416 -413h-239v336h-82v153h82zM286 489h109v-153h-109v-168h29c139 0 234 106 235 244c0 138 -95 245 -235 245h-29v-168z" />
    <glyph glyph-name="E" unicode="E" horiz-adv-x="580" 
d="M532 825v-165h-284v-164h272v-165h-272v-166h284v-165h-472v825h472z" />
    <glyph glyph-name="Eacute" unicode="&#xc9;" horiz-adv-x="580" 
d="M172 976l203 176l91 -115l-238 -138zM532 825v-165h-284v-164h272v-165h-272v-166h284v-165h-472v825h472z" />
    <glyph glyph-name="Ecaron" unicode="&#x11a;" horiz-adv-x="580" 
d="M137 1152l153 -112l153 112l68 -91l-221 -162l-221 162zM532 825v-165h-284v-164h272v-165h-272v-166h284v-165h-472v825h472z" />
    <glyph glyph-name="Ecircumflex" unicode="&#xca;" horiz-adv-x="580" 
d="M69 990l221 162l221 -162l-68 -91l-153 112l-153 -112zM532 825v-165h-284v-164h272v-165h-272v-166h284v-165h-472v825h472z" />
    <glyph glyph-name="Edieresis" unicode="&#xcb;" horiz-adv-x="580" 
d="M171 1103c51 0 92 -41 92 -92s-41 -92 -92 -92s-92 41 -92 92s41 92 92 92zM408 1103c51 0 92 -41 92 -92s-41 -92 -92 -92s-92 41 -92 92s41 92 92 92zM532 825v-165h-284v-164h272v-165h-272v-166h284v-165h-472v825h472z" />
    <glyph glyph-name="Edotaccent" unicode="&#x116;" horiz-adv-x="580" 
d="M290 1103c51 0 92 -41 92 -92s-41 -92 -92 -92s-92 41 -92 92s41 92 92 92zM532 825v-165h-284v-164h272v-165h-272v-166h284v-165h-472v825h472z" />
    <glyph glyph-name="Egrave" unicode="&#xc8;" horiz-adv-x="580" 
d="M145 1152l203 -176l-56 -77l-238 138zM532 825v-165h-284v-164h272v-165h-272v-166h284v-165h-472v825h472z" />
    <glyph glyph-name="Emacron" unicode="&#x112;" horiz-adv-x="580" 
d="M86 1066h408v-120h-408v120zM532 825v-165h-284v-164h272v-165h-272v-166h284v-165h-472v825h472z" />
    <glyph glyph-name="Eogonek" unicode="&#x118;" horiz-adv-x="580" 
d="M532 825v-165h-284v-164h272v-165h-272v-166h284v-165h-97s-59 -70 -59 -140c0 -25 20 -39 37 -39c31 0 51 30 51 30l72 -54s-45 -72 -137 -72c-52 0 -126 30 -126 117c0 55 50 122 80 158h-293v825h472z" />
    <glyph glyph-name="F" unicode="F" horiz-adv-x="567" 
d="M537 825v-165h-289v-164h267v-165h-267v-331h-188v825h477z" />
    <glyph glyph-name="G" unicode="G" horiz-adv-x="829" 
d="M806 462v-179c-45 -209 -219 -298 -381 -298c-222 0 -402 191 -402 427c0 237 170 428 402 428c145 0 246 -54 318 -141l-123 -135c-48 77 -111 106 -184 106c-116 0 -210 -115 -210 -258c0 -140 94 -254 210 -254c90 0 179 58 179 159h-190v145h381z" />
    <glyph glyph-name="Gcommaaccent" unicode="&#x122;" horiz-adv-x="829" 
d="M806 462v-179c-45 -209 -219 -298 -381 -298c-222 0 -402 191 -402 427c0 237 170 428 402 428c145 0 246 -54 318 -141l-123 -135c-48 77 -111 106 -184 106c-116 0 -210 -115 -210 -258c0 -140 94 -254 210 -254c90 0 179 58 179 159h-190v145h381zM413 -40
c-48 0 -88 -40 -88 -90c0 -40 29 -71 67 -80c-12 -65 -59 -110 -59 -110l40 -31c63 52 130 128 130 221c0 50 -40 90 -90 90z" />
    <glyph glyph-name="H" unicode="H" horiz-adv-x="762" 
d="M248 331v-331h-188v825h188v-329h266v329h188v-825h-188v331h-266z" />
    <glyph glyph-name="I" unicode="I" horiz-adv-x="308" 
d="M248 825v-825h-188v825h188z" />
    <glyph glyph-name="Iacute" unicode="&#xcd;" horiz-adv-x="308" 
d="M56 976l203 176l91 -115l-238 -138zM248 825v-825h-188v825h188z" />
    <glyph glyph-name="Icircumflex" unicode="&#xce;" horiz-adv-x="308" 
d="M-67 990l221 162l221 -162l-68 -91l-153 112l-153 -112zM248 825v-825h-188v825h188z" />
    <glyph glyph-name="Idieresis" unicode="&#xcf;" horiz-adv-x="308" 
d="M36 1103c51 0 92 -41 92 -92s-41 -92 -92 -92s-92 41 -92 92s41 92 92 92zM273 1103c51 0 92 -41 92 -92s-41 -92 -92 -92s-92 41 -92 92s41 92 92 92zM248 825v-825h-188v825h188z" />
    <glyph glyph-name="Igrave" unicode="&#xcc;" horiz-adv-x="308" 
d="M9 1152l203 -176l-56 -77l-238 138zM248 825v-825h-188v825h188z" />
    <glyph glyph-name="Imacron" unicode="&#x12a;" horiz-adv-x="308" 
d="M-50 1066h408v-120h-408v120zM248 825v-825h-188v825h188z" />
    <glyph glyph-name="Iogonek" unicode="&#x12e;" horiz-adv-x="308" 
d="M248 825v-825h-53s-59 -70 -59 -140c0 -25 20 -39 37 -39c31 0 51 30 51 30l72 -54s-45 -72 -137 -72c-52 0 -126 30 -126 117c0 55 50 122 80 158h-53v825h188z" />
    <glyph glyph-name="J" unicode="J" horiz-adv-x="469" 
d="M419 825v-592c0 -162 -92 -248 -257 -248c-118 0 -193 79 -193 79l60 157s59 -56 107 -56c54 0 95 33 95 116v544h188z" />
    <glyph glyph-name="K" unicode="K" horiz-adv-x="787" 
d="M811 0h-259l-304 350v-350h-188v825h188v-337l283 337h228l-332 -391z" />
    <glyph glyph-name="Kcommaaccent" unicode="&#x136;" horiz-adv-x="787" 
d="M811 0h-259l-304 350v-350h-188v825h188v-337l283 337h228l-332 -391zM392 -40c-48 0 -88 -40 -88 -90c0 -40 29 -71 67 -80c-12 -65 -59 -110 -59 -110l40 -31c63 52 130 128 130 221c0 50 -40 90 -90 90z" />
    <glyph glyph-name="L" unicode="L" horiz-adv-x="565" 
d="M248 825v-660h284v-165h-472v825h188z" />
    <glyph glyph-name="Lacute" unicode="&#x139;" horiz-adv-x="565" 
d="M136 976l203 176l91 -115l-238 -138zM248 825v-660h284v-165h-472v825h188z" />
    <glyph glyph-name="Lcaron" unicode="&#x13d;" horiz-adv-x="565" 
d="M248 825v-660h284v-165h-472v825h188zM417 824c-48 0 -88 -40 -88 -90c0 -40 29 -71 67 -80c-12 -65 -59 -110 -59 -110l40 -31c63 52 130 128 130 221c0 50 -40 90 -90 90z" />
    <glyph glyph-name="Lcommaaccent" unicode="&#x13b;" horiz-adv-x="565" 
d="M248 825v-660h284v-165h-472v825h188zM281 -40c-48 0 -88 -40 -88 -90c0 -40 29 -71 67 -80c-12 -65 -59 -110 -59 -110l40 -31c63 52 130 128 130 221c0 50 -40 90 -90 90z" />
    <glyph glyph-name="Lslash" unicode="&#x141;" horiz-adv-x="568" 
d="M20 250v153l76 59v363h188v-215l105 83v-153l-105 -83v-292h284v-165h-472v309z" />
    <glyph glyph-name="M" unicode="M" horiz-adv-x="946" 
d="M742 0l-39 489h-5l-169 -484h-112l-169 484h-5l-39 -489h-188l74 825h200l183 -476l183 476h200l74 -825h-188z" />
    <glyph glyph-name="N" unicode="N" horiz-adv-x="826" 
d="M248 512v-512h-188v825h188l328 -512h2v512h188v-825h-188l-328 512h-2z" />
    <glyph glyph-name="Nacute" unicode="&#x143;" horiz-adv-x="826" 
d="M266 976l203 176l91 -115l-238 -138zM248 512v-512h-188v825h188l328 -512h2v512h188v-825h-188l-328 512h-2z" />
    <glyph glyph-name="Ncaron" unicode="&#x147;" horiz-adv-x="826" 
d="M260 1152l153 -112l153 112l68 -91l-221 -162l-221 162zM248 512v-512h-188v825h188l328 -512h2v512h188v-825h-188l-328 512h-2z" />
    <glyph glyph-name="Ncommaaccent" unicode="&#x145;" horiz-adv-x="826" 
d="M248 512v-512h-188v825h188l328 -512h2v512h188v-825h-188l-328 512h-2zM412 -40c-48 0 -88 -40 -88 -90c0 -40 29 -71 67 -80c-12 -65 -59 -110 -59 -110l40 -31c63 52 130 128 130 221c0 50 -40 90 -90 90z" />
    <glyph glyph-name="Ntilde" unicode="&#xd1;" horiz-adv-x="826" 
d="M404 954c0 0 -40 19 -76 19c-32 0 -45 -46 -45 -46h-101s26 172 136 172c39 0 104 -27 104 -27s40 -19 76 -19c32 0 45 46 45 46h101s-26 -172 -136 -172c-39 0 -104 27 -104 27zM248 512v-512h-188v825h188l328 -512h2v512h188v-825h-188l-328 512h-2z" />
    <glyph glyph-name="O" unicode="O" horiz-adv-x="877" 
d="M23 413c0 241 189 427 416 427c229 0 415 -186 415 -427s-178 -428 -415 -428c-244 0 -416 187 -416 428zM226 413c0 -123 59 -246 213 -246c150 0 212 123 212 246s-66 246 -212 246c-145 0 -213 -123 -213 -246z" />
    <glyph glyph-name="Oacute" unicode="&#xd3;" horiz-adv-x="877" 
d="M340 976l203 176l91 -115l-238 -138zM23 413c0 241 189 427 416 427c229 0 415 -186 415 -427s-178 -428 -415 -428c-244 0 -416 187 -416 428zM226 413c0 -123 59 -246 213 -246c150 0 212 123 212 246s-66 246 -212 246c-145 0 -213 -123 -213 -246z" />
    <glyph glyph-name="Ocircumflex" unicode="&#xd4;" horiz-adv-x="877" 
d="M217 990l221 162l221 -162l-68 -91l-153 112l-153 -112zM23 413c0 241 189 427 416 427c229 0 415 -186 415 -427s-178 -428 -415 -428c-244 0 -416 187 -416 428zM226 413c0 -123 59 -246 213 -246c150 0 212 123 212 246s-66 246 -212 246c-145 0 -213 -123 -213 -246z
" />
    <glyph glyph-name="Odieresis" unicode="&#xd6;" horiz-adv-x="877" 
d="M320 1103c51 0 92 -41 92 -92s-41 -92 -92 -92s-92 41 -92 92s41 92 92 92zM557 1103c51 0 92 -41 92 -92s-41 -92 -92 -92s-92 41 -92 92s41 92 92 92zM23 413c0 241 189 427 416 427c229 0 415 -186 415 -427s-178 -428 -415 -428c-244 0 -416 187 -416 428zM226 413
c0 -123 59 -246 213 -246c150 0 212 123 212 246s-66 246 -212 246c-145 0 -213 -123 -213 -246z" />
    <glyph glyph-name="Ograve" unicode="&#xd2;" horiz-adv-x="877" 
d="M293 1152l203 -176l-56 -77l-238 138zM23 413c0 241 189 427 416 427c229 0 415 -186 415 -427s-178 -428 -415 -428c-244 0 -416 187 -416 428zM226 413c0 -123 59 -246 213 -246c150 0 212 123 212 246s-66 246 -212 246c-145 0 -213 -123 -213 -246z" />
    <glyph glyph-name="Ohungarumlaut" unicode="&#x150;" horiz-adv-x="877" 
d="M231 976l173 196l82 -104l-199 -169zM442 976l173 196l82 -104l-199 -169zM23 413c0 241 189 427 416 427c229 0 415 -186 415 -427s-178 -428 -415 -428c-244 0 -416 187 -416 428zM226 413c0 -123 59 -246 213 -246c150 0 212 123 212 246s-66 246 -212 246
c-145 0 -213 -123 -213 -246z" />
    <glyph glyph-name="Omacron" unicode="&#x14c;" horiz-adv-x="877" 
d="M234 1066h408v-120h-408v120zM23 413c0 241 189 427 416 427c229 0 415 -186 415 -427s-178 -428 -415 -428c-244 0 -416 187 -416 428zM226 413c0 -123 59 -246 213 -246c150 0 212 123 212 246s-66 246 -212 246c-145 0 -213 -123 -213 -246z" />
    <glyph glyph-name="Oslash" unicode="&#xd8;" horiz-adv-x="877" 
d="M67 59l55 69c-63 75 -99 174 -99 285c0 241 189 427 416 427c74 0 144 -20 205 -55l54 68l112 -86l-58 -73c63 -74 102 -172 102 -281c0 -241 -178 -428 -415 -428c-78 0 -149 19 -209 53l-51 -65zM226 413c0 -43 7 -87 23 -125l279 352c-25 12 -55 19 -89 19
c-145 0 -213 -123 -213 -246zM651 413c0 42 -8 85 -25 123l-279 -351c26 -12 56 -18 92 -18c150 0 212 123 212 246z" />
    <glyph glyph-name="Otilde" unicode="&#xd5;" horiz-adv-x="877" 
d="M429 954c0 0 -40 19 -76 19c-32 0 -45 -46 -45 -46h-101s26 172 136 172c39 0 104 -27 104 -27s40 -19 76 -19c32 0 45 46 45 46h101s-26 -172 -136 -172c-39 0 -104 27 -104 27zM23 413c0 241 189 427 416 427c229 0 415 -186 415 -427s-178 -428 -415 -428
c-244 0 -416 187 -416 428zM226 413c0 -123 59 -246 213 -246c150 0 212 123 212 246s-66 246 -212 246c-145 0 -213 -123 -213 -246z" />
    <glyph glyph-name="OE" unicode="&#x152;" horiz-adv-x="1010" 
d="M678 660v-164h272v-165h-272v-166h284v-165h-523c-227 0 -416 171 -416 412s189 413 416 413h523v-165h-284zM490 657h-29c-140 0 -235 -107 -235 -244c0 -138 95 -245 235 -245h29v489z" />
    <glyph glyph-name="P" unicode="P" horiz-adv-x="666" 
d="M60 825h301c161 0 282 -83 282 -254c0 -170 -121 -265 -282 -265h-113v-306h-188v825zM248 456h53c74 0 144 25 144 109c0 85 -70 110 -144 110h-53v-219z" />
    <glyph glyph-name="Thorn" unicode="&#xde;" horiz-adv-x="666" 
d="M248 825v-153h113c161 0 282 -83 282 -254c0 -170 -121 -265 -282 -265h-113v-153h-188v825h188zM248 303h53c74 0 139 26 139 109c0 84 -65 110 -139 110h-53v-219z" />
    <glyph glyph-name="Q" unicode="Q" horiz-adv-x="867" 
d="M261 -173l-45 68s72 94 132 94v4c-196 38 -325 208 -325 420c0 241 184 427 411 427c229 0 410 -186 410 -427c0 -197 -116 -358 -287 -410v-4c19 0 79 -19 128 -19c85 0 124 54 124 54l59 -127s-53 -112 -184 -112c-123 0 -174 78 -301 78c-78 0 -122 -46 -122 -46z
M226 413c0 -123 54 -238 208 -238c150 0 207 115 207 238s-61 238 -207 238c-145 0 -208 -115 -208 -238z" />
    <glyph glyph-name="R" unicode="R" horiz-adv-x="716" 
d="M60 825h295c153 0 269 -83 269 -245c0 -124 -68 -207 -169 -239l284 -341h-239l-252 326v-326h-188v825zM248 459h22c71 0 156 5 156 108s-85 108 -156 108h-22v-216z" />
    <glyph glyph-name="Racute" unicode="&#x154;" horiz-adv-x="716" 
d="M211 976l203 176l91 -115l-238 -138zM60 825h295c153 0 269 -83 269 -245c0 -124 -68 -207 -169 -239l284 -341h-239l-252 326v-326h-188v825zM248 459h22c71 0 156 5 156 108s-85 108 -156 108h-22v-216z" />
    <glyph glyph-name="Rcaron" unicode="&#x158;" horiz-adv-x="716" 
d="M171 1152l153 -112l153 112l68 -91l-221 -162l-221 162zM60 825h295c153 0 269 -83 269 -245c0 -124 -68 -207 -169 -239l284 -341h-239l-252 326v-326h-188v825zM248 459h22c71 0 156 5 156 108s-85 108 -156 108h-22v-216z" />
    <glyph glyph-name="Rcommaaccent" unicode="&#x156;" horiz-adv-x="716" 
d="M60 825h295c153 0 269 -83 269 -245c0 -124 -68 -207 -169 -239l284 -341h-239l-252 326v-326h-188v825zM248 459h22c71 0 156 5 156 108s-85 108 -156 108h-22v-216zM357 -40c-48 0 -88 -40 -88 -90c0 -40 29 -71 67 -80c-12 -65 -59 -110 -59 -110l40 -31
c63 52 130 128 130 221c0 50 -40 90 -90 90z" />
    <glyph glyph-name="S" unicode="S" horiz-adv-x="672" 
d="M364 840c150 0 256 -78 256 -78l-76 -150s-82 57 -167 57c-64 0 -98 -29 -98 -74c0 -46 78 -79 172 -119c92 -39 193 -117 193 -225c0 -197 -150 -266 -311 -266c-193 0 -310 109 -310 109l94 158s110 -93 202 -93c41 0 119 4 119 81c0 60 -88 87 -186 136
c-99 49 -157 126 -157 212c0 154 136 252 269 252z" />
    <glyph glyph-name="Sacute" unicode="&#x15a;" horiz-adv-x="672" 
d="M189 976l203 176l91 -115l-238 -138zM364 840c150 0 256 -78 256 -78l-76 -150s-82 57 -167 57c-64 0 -98 -29 -98 -74c0 -46 78 -79 172 -119c92 -39 193 -117 193 -225c0 -197 -150 -266 -311 -266c-193 0 -310 109 -310 109l94 158s110 -93 202 -93c41 0 119 4 119 81
c0 60 -88 87 -186 136c-99 49 -157 126 -157 212c0 154 136 252 269 252z" />
    <glyph glyph-name="Scaron" unicode="&#x160;" horiz-adv-x="672" 
d="M183 1152l153 -112l153 112l68 -91l-221 -162l-221 162zM364 840c150 0 256 -78 256 -78l-76 -150s-82 57 -167 57c-64 0 -98 -29 -98 -74c0 -46 78 -79 172 -119c92 -39 193 -117 193 -225c0 -197 -150 -266 -311 -266c-193 0 -310 109 -310 109l94 158s110 -93 202 -93
c41 0 119 4 119 81c0 60 -88 87 -186 136c-99 49 -157 126 -157 212c0 154 136 252 269 252z" />
    <glyph glyph-name="Scommaaccent" unicode="&#x218;" horiz-adv-x="672" 
d="M364 840c150 0 256 -78 256 -78l-76 -150s-82 57 -167 57c-64 0 -98 -29 -98 -74c0 -46 78 -79 172 -119c92 -39 193 -117 193 -225c0 -197 -150 -266 -311 -266c-193 0 -310 109 -310 109l94 158s110 -93 202 -93c41 0 119 4 119 81c0 60 -88 87 -186 136
c-99 49 -157 126 -157 212c0 154 136 252 269 252zM335 -40c-48 0 -88 -40 -88 -90c0 -40 29 -71 67 -80c-12 -65 -59 -110 -59 -110l40 -31c63 52 130 128 130 221c0 50 -40 90 -90 90z" />
    <glyph glyph-name="T" unicode="T" horiz-adv-x="596" 
d="M8 660v165h580v-165h-196v-660h-188v660h-196z" />
    <glyph glyph-name="Tcaron" unicode="&#x164;" horiz-adv-x="596" 
d="M145 1152l153 -112l153 112l68 -91l-221 -162l-221 162zM8 660v165h580v-165h-196v-660h-188v660h-196z" />
    <glyph glyph-name="uni021A" unicode="&#x21a;" horiz-adv-x="596" 
d="M8 660v165h580v-165h-196v-660h-188v660h-196zM297 -40c-48 0 -88 -40 -88 -90c0 -40 29 -71 67 -80c-12 -65 -59 -110 -59 -110l40 -31c63 52 130 128 130 221c0 50 -40 90 -90 90z" />
    <glyph glyph-name="U" unicode="U" horiz-adv-x="744" 
d="M694 825v-532c0 -204 -112 -308 -322 -308s-322 104 -322 308v532h188v-477c0 -138 42 -178 134 -178s134 40 134 178v477h188z" />
    <glyph glyph-name="Uacute" unicode="&#xda;" horiz-adv-x="744" 
d="M254 976l203 176l91 -115l-238 -138zM506 825v-477c0 -138 -42 -178 -134 -178s-134 40 -134 178v477h-188v-532c0 -204 112 -308 322 -308s322 104 322 308v532h-188z" />
    <glyph glyph-name="Ucircumflex" unicode="&#xdb;" horiz-adv-x="744" 
d="M151 990l221 162l221 -162l-68 -91l-153 112l-153 -112zM506 825v-477c0 -138 -42 -178 -134 -178s-134 40 -134 178v477h-188v-532c0 -204 112 -308 322 -308s322 104 322 308v532h-188z" />
    <glyph glyph-name="Udieresis" unicode="&#xdc;" horiz-adv-x="744" 
d="M253 1103c51 0 92 -41 92 -92s-41 -92 -92 -92s-92 41 -92 92s41 92 92 92zM490 1103c51 0 92 -41 92 -92s-41 -92 -92 -92s-92 41 -92 92s41 92 92 92zM506 825v-477c0 -138 -42 -178 -134 -178s-134 40 -134 178v477h-188v-532c0 -204 112 -308 322 -308
s322 104 322 308v532h-188z" />
    <glyph glyph-name="Ugrave" unicode="&#xd9;" horiz-adv-x="744" 
d="M227 1152l203 -176l-56 -77l-238 138zM506 825v-477c0 -138 -42 -178 -134 -178s-134 40 -134 178v477h-188v-532c0 -204 112 -308 322 -308s322 104 322 308v532h-188z" />
    <glyph glyph-name="Uhungarumlaut" unicode="&#x170;" horiz-adv-x="744" 
d="M165 976l173 196l82 -104l-199 -169zM376 976l173 196l82 -104l-199 -169zM506 825v-477c0 -138 -42 -178 -134 -178s-134 40 -134 178v477h-188v-532c0 -204 112 -308 322 -308s322 104 322 308v532h-188z" />
    <glyph glyph-name="Umacron" unicode="&#x16a;" horiz-adv-x="744" 
d="M168 1066h408v-120h-408v120zM506 825v-477c0 -138 -42 -178 -134 -178s-134 40 -134 178v477h-188v-532c0 -204 112 -308 322 -308s322 104 322 308v532h-188z" />
    <glyph glyph-name="Uogonek" unicode="&#x172;" horiz-adv-x="744" 
d="M265 -158c0 50 39 107 69 145c-186 12 -284 114 -284 306v532h188v-477c0 -138 42 -178 134 -178s134 40 134 178v477h188v-532c0 -189 -96 -292 -277 -306c-17 -23 -49 -75 -49 -127c0 -25 20 -39 37 -39c31 0 51 30 51 30l72 -54s-45 -72 -137 -72
c-52 0 -126 30 -126 117z" />
    <glyph glyph-name="Uring" unicode="&#x16e;" horiz-adv-x="744" 
d="M211 1045c0 83 71 142 161 142c91 0 161 -59 161 -142c0 -84 -67 -143 -161 -143c-96 0 -161 59 -161 143zM311 1045c0 -35 25 -64 61 -64c35 0 61 29 61 64c0 34 -27 62 -61 62c-33 0 -61 -28 -61 -62zM694 825v-532c0 -204 -112 -308 -322 -308s-322 104 -322 308v532
h188v-477c0 -138 42 -178 134 -178s134 40 134 178v477h188z" />
    <glyph glyph-name="V" unicode="V" horiz-adv-x="784" 
d="M318 0l-346 825h212l208 -542l208 542h212l-346 -825h-148z" />
    <glyph glyph-name="W" unicode="W" horiz-adv-x="1121" 
d="M693 0l-132 463l-132 -463h-209l-235 825h209l141 -566h5l150 566h142l150 -566h5l141 566h208l-235 -825h-208z" />
    <glyph glyph-name="X" unicode="X" horiz-adv-x="798" 
d="M832 0h-243l-195 281l-195 -281h-233l312 444l-260 381h224l152 -225l152 225h234l-270 -381z" />
    <glyph glyph-name="Y" unicode="Y" horiz-adv-x="736" 
d="M-30 825h226l172 -264l172 264h226l-304 -455v-370h-188v370z" />
    <glyph glyph-name="Yacute" unicode="&#xdd;" horiz-adv-x="736" 
d="M251 976l203 176l91 -115l-238 -138zM-30 825h226l172 -264l172 264h226l-304 -455v-370h-188v370z" />
    <glyph glyph-name="Ydieresis" unicode="&#x178;" horiz-adv-x="736" 
d="M249 1103c51 0 92 -41 92 -92s-41 -92 -92 -92s-92 41 -92 92s41 92 92 92zM486 1103c51 0 92 -41 92 -92s-41 -92 -92 -92s-92 41 -92 92s41 92 92 92zM-30 825h226l172 -264l172 264h226l-304 -455v-370h-188v370z" />
    <glyph glyph-name="Z" unicode="Z" horiz-adv-x="769" 
d="M753 825l-409 -660h382v-165h-710l408 660h-350v165h679z" />
    <glyph glyph-name="Zacute" unicode="&#x179;" horiz-adv-x="769" 
d="M237 976l203 176l91 -115l-238 -138zM753 825l-409 -660h382v-165h-710l408 660h-350v165h679z" />
    <glyph glyph-name="Zcaron" unicode="&#x17d;" horiz-adv-x="769" 
d="M231 1152l153 -112l153 112l68 -91l-221 -162l-221 162zM753 825l-409 -660h382v-165h-710l408 660h-350v165h679z" />
    <glyph glyph-name="Zdotaccent" unicode="&#x17b;" horiz-adv-x="769" 
d="M384 1103c51 0 92 -41 92 -92s-41 -92 -92 -92s-92 41 -92 92s41 92 92 92zM753 825l-409 -660h382v-165h-710l408 660h-350v165h679z" />
    <glyph glyph-name="R.1" horiz-adv-x="722" 
d="M60 825h295c153 0 269 -83 269 -245c0 -124 -68 -207 -169 -239c127 -149 152 -187 188 -187c27 0 46 15 46 15l54 -136s-46 -48 -136 -48c-105 0 -163 88 -163 88l-196 253v-326h-188v825zM248 459h22c71 0 156 5 156 108s-85 108 -156 108h-22v-216z" />
    <glyph glyph-name="Q.2" horiz-adv-x="876" 
d="M896 142l-83 -168c-61 23 -114 53 -151 79c-64 -44 -142 -68 -228 -68c-244 0 -411 187 -411 428s184 427 411 427c229 0 410 -186 410 -427c0 -86 -22 -165 -61 -231c27 -13 64 -27 113 -40zM226 413c0 -123 54 -238 208 -238c21 0 41 2 59 7c-47 44 -84 89 -102 112
l80 100s56 -62 140 -119c21 40 30 88 30 138c0 123 -61 238 -207 238c-145 0 -208 -115 -208 -238z" />
    <glyph glyph-name="a" unicode="a" 
d="M23 256c0 150 105 272 255 272c69 0 126 -23 168 -64v49h177v-513h-175v58h-2c-38 -42 -98 -73 -168 -73c-150 0 -255 121 -255 271zM211 256c0 -70 48 -120 120 -120c69 0 119 50 119 120c0 71 -53 121 -119 121c-67 0 -120 -50 -120 -121z" />
    <glyph glyph-name="aacute" unicode="&#xe1;" 
d="M283 664l203 176l91 -115l-238 -138zM23 256c0 -150 105 -271 255 -271c70 0 130 31 168 73h2v-58h175v513h-177v-49c-42 41 -99 64 -168 64c-150 0 -255 -122 -255 -272zM211 256c0 71 53 121 120 121c66 0 119 -50 119 -121c0 -70 -50 -120 -119 -120
c-72 0 -120 50 -120 120z" />
    <glyph glyph-name="abreve" unicode="&#x103;" 
d="M446 840l126 -31c-12 -107 -102 -181 -231 -181s-219 74 -231 181l126 31s11 -103 105 -103s105 103 105 103zM23 256c0 150 105 272 255 272c69 0 126 -23 168 -64v49h177v-513h-175v58h-2c-38 -42 -98 -73 -168 -73c-150 0 -255 121 -255 271zM211 256
c0 -70 48 -120 120 -120c69 0 119 50 119 120c0 71 -53 121 -119 121c-67 0 -120 -50 -120 -121z" />
    <glyph glyph-name="acircumflex" unicode="&#xe2;" 
d="M120 678l221 162l221 -162l-68 -91l-153 112l-153 -112zM23 256c0 -150 105 -271 255 -271c70 0 130 31 168 73h2v-58h175v513h-177v-49c-42 41 -99 64 -168 64c-150 0 -255 -122 -255 -272zM211 256c0 71 53 121 120 121c66 0 119 -50 119 -121
c0 -70 -50 -120 -119 -120c-72 0 -120 50 -120 120z" />
    <glyph glyph-name="adieresis" unicode="&#xe4;" 
d="M223 791c51 0 92 -41 92 -92s-41 -92 -92 -92s-92 41 -92 92s41 92 92 92zM460 791c51 0 92 -41 92 -92s-41 -92 -92 -92s-92 41 -92 92s41 92 92 92zM23 256c0 -150 105 -271 255 -271c70 0 130 31 168 73h2v-58h175v513h-177v-49c-42 41 -99 64 -168 64
c-150 0 -255 -122 -255 -272zM211 256c0 71 53 121 120 121c66 0 119 -50 119 -121c0 -70 -50 -120 -119 -120c-72 0 -120 50 -120 120z" />
    <glyph glyph-name="agrave" unicode="&#xe0;" 
d="M196 840l203 -176l-56 -77l-238 138zM23 256c0 -150 105 -271 255 -271c70 0 130 31 168 73h2v-58h175v513h-177v-49c-42 41 -99 64 -168 64c-150 0 -255 -122 -255 -272zM211 256c0 71 53 121 120 121c66 0 119 -50 119 -121c0 -70 -50 -120 -119 -120
c-72 0 -120 50 -120 120z" />
    <glyph glyph-name="amacron" unicode="&#x101;" 
d="M137 754h408v-120h-408v120zM23 256c0 -150 105 -271 255 -271c70 0 130 31 168 73h2v-58h175v513h-177v-49c-42 41 -99 64 -168 64c-150 0 -255 -122 -255 -272zM211 256c0 71 53 121 120 121c66 0 119 -50 119 -121c0 -70 -50 -120 -119 -120c-72 0 -120 50 -120 120z
" />
    <glyph glyph-name="aogonek" unicode="&#x105;" 
d="M368 -158c0 57 50 123 80 158v58h-2c-38 -42 -98 -73 -168 -73c-150 0 -255 121 -255 271s105 272 255 272c69 0 126 -23 168 -64v49h177v-513h-93s-59 -70 -59 -140c0 -25 20 -39 37 -39c31 0 51 30 51 30l72 -54s-45 -72 -137 -72c-52 0 -126 30 -126 117zM211 256
c0 -70 48 -120 120 -120c69 0 119 50 119 120c0 71 -53 121 -119 121c-67 0 -120 -50 -120 -121z" />
    <glyph glyph-name="aring" unicode="&#xe5;" 
d="M180 733c0 83 71 142 161 142c91 0 161 -59 161 -142c0 -84 -67 -143 -161 -143c-96 0 -161 59 -161 143zM280 733c0 -35 25 -64 61 -64c35 0 61 29 61 64c0 34 -27 62 -61 62c-33 0 -61 -28 -61 -62zM23 256c0 150 105 272 255 272c69 0 126 -23 168 -64v49h177v-513
h-175v58h-2c-38 -42 -98 -73 -168 -73c-150 0 -255 121 -255 271zM211 256c0 -70 48 -120 120 -120c69 0 119 50 119 120c0 71 -53 121 -119 121c-67 0 -120 -50 -120 -121z" />
    <glyph glyph-name="atilde" unicode="&#xe3;" 
d="M332 642c0 0 -40 19 -76 19c-32 0 -45 -46 -45 -46h-101s26 172 136 172c39 0 104 -27 104 -27s40 -19 76 -19c32 0 45 46 45 46h101s-26 -172 -136 -172c-39 0 -104 27 -104 27zM23 256c0 -150 105 -271 255 -271c70 0 130 31 168 73h2v-58h175v513h-177v-49
c-42 41 -99 64 -168 64c-150 0 -255 -122 -255 -272zM211 256c0 71 53 121 120 121c66 0 119 -50 119 -121c0 -70 -50 -120 -119 -120c-72 0 -120 50 -120 120z" />
    <glyph glyph-name="ae" unicode="&#xe6;" horiz-adv-x="943" 
d="M112 357l-56 121s64 50 195 50c62 0 150 -15 212 -64c49 40 113 64 182 64c156 0 275 -92 275 -272c0 -7 0 -18 -1 -24h-372c0 -79 66 -106 111 -106c57 0 82 11 125 57l128 -64c-58 -97 -152 -134 -266 -134c-85 0 -161 36 -213 94c0 0 -62 -94 -219 -94
c-107 0 -190 58 -190 151c0 92 67 165 183 165c85 0 134 -23 157 -39v37c0 56 -61 88 -112 88c-92 0 -139 -30 -139 -30zM552 330h195c-8 54 -45 83 -97 83c-61 0 -95 -36 -98 -83zM199 151c0 -36 32 -60 79 -60s85 30 85 60s-38 56 -85 56s-79 -20 -79 -56z" />
    <glyph glyph-name="b" unicode="b" 
d="M660 256c0 -150 -105 -271 -255 -271c-70 0 -130 31 -168 73h-2v-58h-175v860h177v-396c42 41 99 64 168 64c150 0 255 -122 255 -272zM472 256c0 71 -53 121 -120 121c-66 0 -119 -50 -119 -121c0 -70 50 -120 119 -120c72 0 120 50 120 120z" />
    <glyph glyph-name="c" unicode="c" horiz-adv-x="491" 
d="M333 383c-67 0 -122 -56 -122 -126c0 -71 55 -127 122 -127c53 0 86 24 86 24l60 -123s-58 -46 -172 -46c-148 0 -284 120 -284 270c0 151 135 273 284 273c114 0 172 -48 172 -48l-60 -121s-33 24 -86 24z" />
    <glyph glyph-name="cacute" unicode="&#x107;" horiz-adv-x="491" 
d="M191 664l203 176l91 -115l-238 -138zM333 383c-67 0 -122 -56 -122 -126c0 -71 55 -127 122 -127c53 0 86 24 86 24l60 -123s-58 -46 -172 -46c-148 0 -284 120 -284 270c0 151 135 273 284 273c114 0 172 -48 172 -48l-60 -121s-33 24 -86 24z" />
    <glyph glyph-name="ccaron" unicode="&#x10d;" horiz-adv-x="491" 
d="M104 840l153 -112l153 112l68 -91l-221 -162l-221 162zM333 383c-67 0 -122 -56 -122 -126c0 -71 55 -127 122 -127c53 0 86 24 86 24l60 -123s-58 -46 -172 -46c-148 0 -284 120 -284 270c0 151 135 273 284 273c114 0 172 -48 172 -48l-60 -121s-33 24 -86 24z" />
    <glyph glyph-name="ccedilla" unicode="&#xe7;" horiz-adv-x="491" 
d="M177 -121l39 121c-108 36 -193 136 -193 255c0 151 135 273 284 273c114 0 172 -48 172 -48l-60 -121s-33 24 -86 24c-67 0 -122 -56 -122 -126c0 -71 55 -127 122 -127c53 0 86 24 86 24l60 -123s-58 -46 -172 -46c-6 0 -12 0 -18 1l-16 -49c55 0 129 -33 129 -102
c0 -63 -41 -129 -152 -129c-90 0 -154 83 -154 83l72 54s36 -47 82 -47c37 0 50 20 50 39c0 31 -34 45 -62 45c-36 0 -51 -9 -51 -9z" />
    <glyph glyph-name="d" unicode="d" 
d="M23 256c0 150 105 272 255 272c69 0 126 -23 168 -64v396h177v-860h-175v58h-2c-38 -42 -98 -73 -168 -73c-150 0 -255 121 -255 271zM211 256c0 -70 48 -120 120 -120c69 0 119 50 119 120c0 71 -53 121 -119 121c-67 0 -120 -50 -120 -121z" />
    <glyph glyph-name="eth" unicode="&#xf0;" horiz-adv-x="684" 
d="M41 256c0 168 148 272 258 272c14 0 61 0 90 -16c-33 47 -75 85 -117 115l-83 -82l-77 77l62 62c-63 30 -111 41 -111 41l42 150s85 -19 188 -72l73 72l76 -78l-52 -52c134 -94 266 -247 266 -489c0 -158 -129 -271 -306 -271c-185 0 -309 113 -309 271zM229 256
c0 -70 48 -120 120 -120c69 0 119 50 119 120v5c-3 68 -55 116 -119 116c-67 0 -120 -50 -120 -121z" />
    <glyph glyph-name="dcaron" unicode="&#x10f;" 
d="M23 256c0 150 105 272 255 272c69 0 126 -23 168 -64v396h177v-860h-175v58h-2c-38 -42 -98 -73 -168 -73c-150 0 -255 121 -255 271zM756 824c50 0 90 -40 90 -90c0 -93 -67 -169 -130 -221l-40 31s47 45 59 110c-38 9 -67 40 -67 80c0 50 40 90 88 90zM211 256
c0 -70 48 -120 120 -120c69 0 119 50 119 120c0 71 -53 121 -119 121c-67 0 -120 -50 -120 -121z" />
    <glyph glyph-name="dcroat" unicode="&#x111;" 
d="M321 742h125v118h177v-118h60v-114h-60v-628h-175v58h-2c-38 -42 -98 -73 -168 -73c-150 0 -255 121 -255 271s105 272 255 272c69 0 126 -23 168 -64v164h-125v114zM211 256c0 -70 48 -120 120 -120c69 0 119 50 119 120c0 71 -53 121 -119 121
c-67 0 -120 -50 -120 -121z" />
    <glyph glyph-name="e" unicode="e" horiz-adv-x="603" 
d="M579 232h-372c0 -79 66 -106 111 -106c57 0 82 11 125 57l128 -64c-58 -97 -152 -134 -266 -134c-155 0 -282 122 -282 271c0 150 127 272 282 272c156 0 275 -92 275 -272c0 -7 0 -18 -1 -24zM212 330h195c-8 54 -45 83 -97 83c-61 0 -95 -36 -98 -83z" />
    <glyph glyph-name="eacute" unicode="&#xe9;" horiz-adv-x="603" 
d="M243 664l203 176l91 -115l-238 -138zM579 232h-372c0 -79 66 -106 111 -106c57 0 82 11 125 57l128 -64c-58 -97 -152 -134 -266 -134c-155 0 -282 122 -282 271c0 150 127 272 282 272c156 0 275 -92 275 -272c0 -7 0 -18 -1 -24zM212 330h195c-8 54 -45 83 -97 83
c-61 0 -95 -36 -98 -83z" />
    <glyph glyph-name="ecaron" unicode="&#x11b;" horiz-adv-x="603" 
d="M148 840l153 -112l153 112l68 -91l-221 -162l-221 162zM579 232h-372c0 -79 66 -106 111 -106c57 0 82 11 125 57l128 -64c-58 -97 -152 -134 -266 -134c-155 0 -282 122 -282 271c0 150 127 272 282 272c156 0 275 -92 275 -272c0 -7 0 -18 -1 -24zM212 330h195
c-8 54 -45 83 -97 83c-61 0 -95 -36 -98 -83z" />
    <glyph glyph-name="ecircumflex" unicode="&#xea;" horiz-adv-x="603" 
d="M80 678l221 162l221 -162l-68 -91l-153 112l-153 -112zM579 232h-372c0 -79 66 -106 111 -106c57 0 82 11 125 57l128 -64c-58 -97 -152 -134 -266 -134c-155 0 -282 122 -282 271c0 150 127 272 282 272c156 0 275 -92 275 -272c0 -7 0 -18 -1 -24zM212 330h195
c-8 54 -45 83 -97 83c-61 0 -95 -36 -98 -83z" />
    <glyph glyph-name="edieresis" unicode="&#xeb;" horiz-adv-x="603" 
d="M183 791c51 0 92 -41 92 -92s-41 -92 -92 -92s-92 41 -92 92s41 92 92 92zM420 791c51 0 92 -41 92 -92s-41 -92 -92 -92s-92 41 -92 92s41 92 92 92zM579 232h-372c0 -79 66 -106 111 -106c57 0 82 11 125 57l128 -64c-58 -97 -152 -134 -266 -134
c-155 0 -282 122 -282 271c0 150 127 272 282 272c156 0 275 -92 275 -272c0 -7 0 -18 -1 -24zM212 330h195c-8 54 -45 83 -97 83c-61 0 -95 -36 -98 -83z" />
    <glyph glyph-name="edotaccent" unicode="&#x117;" horiz-adv-x="603" 
d="M301 791c51 0 92 -41 92 -92s-41 -92 -92 -92s-92 41 -92 92s41 92 92 92zM579 232h-372c0 -79 66 -106 111 -106c57 0 82 11 125 57l128 -64c-58 -97 -152 -134 -266 -134c-155 0 -282 122 -282 271c0 150 127 272 282 272c156 0 275 -92 275 -272c0 -7 0 -18 -1 -24z
M212 330h195c-8 54 -45 83 -97 83c-61 0 -95 -36 -98 -83z" />
    <glyph glyph-name="egrave" unicode="&#xe8;" horiz-adv-x="603" 
d="M156 840l203 -176l-56 -77l-238 138zM579 232h-372c0 -79 66 -106 111 -106c57 0 82 11 125 57l128 -64c-58 -97 -152 -134 -266 -134c-155 0 -282 122 -282 271c0 150 127 272 282 272c156 0 275 -92 275 -272c0 -7 0 -18 -1 -24zM212 330h195c-8 54 -45 83 -97 83
c-61 0 -95 -36 -98 -83z" />
    <glyph glyph-name="emacron" unicode="&#x113;" horiz-adv-x="603" 
d="M97 754h408v-120h-408v120zM579 232h-372c0 -79 66 -106 111 -106c57 0 82 11 125 57l128 -64c-58 -97 -152 -134 -266 -134c-155 0 -282 122 -282 271c0 150 127 272 282 272c156 0 275 -92 275 -272c0 -7 0 -18 -1 -24zM212 330h195c-8 54 -45 83 -97 83
c-61 0 -95 -36 -98 -83z" />
    <glyph glyph-name="eogonek" unicode="&#x119;" horiz-adv-x="603" 
d="M579 232h-372c0 -79 66 -106 111 -106c57 0 82 11 125 57l128 -64c-38 -63 -90 -100 -153 -119c0 0 -59 -70 -59 -140c0 -25 20 -39 37 -39c31 0 51 30 51 30l72 -54s-45 -72 -137 -72c-52 0 -126 30 -126 117c0 48 38 106 68 144c-6 0 -13 -1 -19 -1
c-155 0 -282 122 -282 271c0 150 127 272 282 272c156 0 275 -92 275 -272c0 -7 0 -18 -1 -24zM212 330h195c-8 54 -45 83 -97 83c-61 0 -95 -36 -98 -83z" />
    <glyph glyph-name="f" unicode="f" horiz-adv-x="375" 
d="M90 513v109c1 150 73 253 201 253c90 0 146 -46 146 -46l-62 -125s-24 14 -53 14c-45 0 -55 -30 -55 -101v-104h118v-135h-118v-378h-177v378h-74v135h74z" />
    <glyph glyph-name="g" unicode="g" 
d="M37 -126l145 71c19 -31 62 -66 139 -66c49 0 125 29 125 120v38c-38 -42 -98 -52 -168 -52c-150 0 -255 121 -255 271s105 272 255 272c68 0 123 -22 165 -61h3v46h177v-527c0 -172 -127 -261 -302 -261c-107 0 -230 24 -284 149zM211 256c0 -70 48 -120 120 -120
c69 0 119 50 119 120c0 71 -53 121 -119 121c-67 0 -120 -50 -120 -121z" />
    <glyph glyph-name="gcommaaccent" unicode="&#x123;" 
d="M342 607c-50 0 -90 40 -90 90c0 93 67 169 130 221l40 -31s-47 -45 -59 -110c38 -9 67 -40 67 -80c0 -50 -40 -90 -88 -90zM37 -126l145 71c19 -31 62 -66 139 -66c49 0 125 29 125 120v38c-38 -42 -98 -52 -168 -52c-150 0 -255 121 -255 271s105 272 255 272
c68 0 123 -22 165 -61h3v46h177v-527c0 -172 -127 -261 -302 -261c-107 0 -230 24 -284 149zM211 256c0 -70 48 -120 120 -120c69 0 119 50 119 120c0 71 -53 121 -119 121c-67 0 -120 -50 -120 -121z" />
    <glyph glyph-name="h" unicode="h" horiz-adv-x="661" 
d="M60 0v860h177v-401h2c40 40 91 69 147 69c94 0 225 -47 225 -190v-338h-177v290c0 51 -35 100 -92 100c-53 0 -105 -49 -105 -100v-290h-177z" />
    <glyph glyph-name="i" unicode="i" horiz-adv-x="302" 
d="M151 830c58 0 105 -47 105 -105s-47 -105 -105 -105s-105 47 -105 105s47 105 105 105zM60 513v-513h177v513h-177z" />
    <glyph glyph-name="dotlessi" unicode="&#x131;" horiz-adv-x="269" 
d="M46 0v513h177v-513h-177z" />
    <glyph glyph-name="iacute" unicode="&#xed;" horiz-adv-x="297" 
d="M90 664l203 176l91 -115l-238 -138zM60 513v-513h177v513h-177z" />
    <glyph glyph-name="icircumflex" unicode="&#xee;" horiz-adv-x="297" 
d="M-72 678l221 162l221 -162l-68 -91l-153 112l-153 -112zM60 513v-513h177v513h-177z" />
    <glyph glyph-name="idieresis" unicode="&#xef;" horiz-adv-x="297" 
d="M30 791c51 0 92 -41 92 -92s-41 -92 -92 -92s-92 41 -92 92s41 92 92 92zM267 791c51 0 92 -41 92 -92s-41 -92 -92 -92s-92 41 -92 92s41 92 92 92zM60 513v-513h177v513h-177z" />
    <glyph glyph-name="igrave" unicode="&#xec;" horiz-adv-x="297" 
d="M4 840l203 -176l-56 -77l-238 138zM60 513v-513h177v513h-177z" />
    <glyph glyph-name="imacron" unicode="&#x12b;" horiz-adv-x="297" 
d="M-55 754h408v-120h-408v120zM60 513v-513h177v513h-177z" />
    <glyph glyph-name="iogonek" unicode="&#x12f;" horiz-adv-x="297" 
d="M151 830c58 0 105 -47 105 -105s-47 -105 -105 -105s-105 47 -105 105s47 105 105 105zM29 -158c0 -87 74 -117 126 -117c92 0 137 72 137 72l-72 54s-20 -30 -51 -30c-17 0 -37 14 -37 39c0 70 59 140 59 140h46v513h-177v-513h49c-30 -35 -80 -101 -80 -158z" />
    <glyph glyph-name="j" unicode="j" horiz-adv-x="297" 
d="M151 830c58 0 105 -47 105 -105s-47 -105 -105 -105s-105 47 -105 105s47 105 105 105zM60 513v-558c0 -48 -19 -70 -49 -70c-22 0 -45 15 -45 15l-55 -143c25 -11 57 -32 141 -32c141 0 185 105 185 196v592h-177z" />
    <glyph glyph-name="k" unicode="k" horiz-adv-x="646" 
d="M646 513l-244 -245l268 -268h-228l-205 205v-205h-177v860h177v-526l179 179h230z" />
    <glyph glyph-name="kcommaaccent" unicode="&#x137;" horiz-adv-x="646" 
d="M646 513l-244 -245l268 -268h-228l-205 205v-205h-177v860h177v-526l179 179h230zM322 -40c50 0 90 -40 90 -90c0 -93 -67 -169 -130 -221l-40 31s47 45 59 110c-38 9 -67 40 -67 80c0 50 40 90 88 90z" />
    <glyph glyph-name="l" unicode="l" horiz-adv-x="297" 
d="M60 0v860h177v-860h-177z" />
    <glyph glyph-name="lacute" unicode="&#x13a;" horiz-adv-x="297" 
d="M60 1011l203 176l91 -115l-238 -138zM60 860v-860h177v860h-177z" />
    <glyph glyph-name="lcaron" unicode="&#x13e;" horiz-adv-x="297" 
d="M60 0v860h177v-860h-177zM370 824c50 0 90 -40 90 -90c0 -93 -67 -169 -130 -221l-40 31s47 45 59 110c-38 9 -67 40 -67 80c0 50 40 90 88 90z" />
    <glyph glyph-name="lcommaaccent" unicode="&#x13c;" horiz-adv-x="297" 
d="M60 0v860h177v-860h-177zM147 -40c50 0 90 -40 90 -90c0 -93 -67 -169 -130 -221l-40 31s47 45 59 110c-38 9 -67 40 -67 80c0 50 40 90 88 90z" />
    <glyph glyph-name="lslash" unicode="&#x142;" horiz-adv-x="369" 
d="M96 0v310l-76 -60v153l76 60v397h177v-258l76 60v-153l-76 -60v-449h-177z" />
    <glyph glyph-name="m" unicode="m" horiz-adv-x="985" 
d="M60 0v513h177v-54h2c40 40 91 69 147 69c68 0 143 -25 179 -94c54 65 114 94 170 94c94 0 200 -47 200 -190v-338h-177v290c0 51 -27 96 -90 96c-56 0 -80 -41 -82 -80v-306h-177v290c0 51 -27 96 -90 96c-59 0 -82 -45 -82 -86v-300h-177z" />
    <glyph glyph-name="n" unicode="n" horiz-adv-x="661" 
d="M60 0v513h177v-54h2c40 40 91 69 147 69c94 0 225 -47 225 -190v-338h-177v290c0 51 -35 100 -92 100c-53 0 -105 -49 -105 -100v-290h-177z" />
    <glyph glyph-name="nacute" unicode="&#x144;" horiz-adv-x="661" 
d="M271 664l203 176l91 -115l-238 -138zM237 0v290c0 51 52 100 105 100c57 0 92 -49 92 -100v-290h177v338c0 143 -131 190 -225 190c-56 0 -107 -29 -147 -69h-2v54h-177v-513h177z" />
    <glyph glyph-name="ncaron" unicode="&#x148;" horiz-adv-x="661" 
d="M177 840l153 -112l153 112l68 -91l-221 -162l-221 162zM237 0v290c0 51 52 100 105 100c57 0 92 -49 92 -100v-290h177v338c0 143 -131 190 -225 190c-56 0 -107 -29 -147 -69h-2v54h-177v-513h177z" />
    <glyph glyph-name="ncommaaccent" unicode="&#x146;" horiz-adv-x="661" 
d="M60 0v513h177v-54h2c40 40 91 69 147 69c94 0 225 -47 225 -190v-338h-177v290c0 51 -35 100 -92 100c-53 0 -105 -49 -105 -100v-290h-177zM329 -40c50 0 90 -40 90 -90c0 -93 -67 -169 -130 -221l-40 31s47 45 59 110c-38 9 -67 40 -67 80c0 50 40 90 88 90z" />
    <glyph glyph-name="ntilde" unicode="&#xf1;" horiz-adv-x="661" 
d="M321 642c0 0 -40 19 -76 19c-32 0 -45 -46 -45 -46h-101s26 172 136 172c39 0 104 -27 104 -27s40 -19 76 -19c32 0 45 46 45 46h101s-26 -172 -136 -172c-39 0 -104 27 -104 27zM237 0v290c0 51 52 100 105 100c57 0 92 -49 92 -100v-290h177v338
c0 143 -131 190 -225 190c-56 0 -107 -29 -147 -69h-2v54h-177v-513h177z" />
    <glyph glyph-name="o" unicode="o" horiz-adv-x="661" 
d="M23 256c0 160 136 272 309 272c170 0 306 -112 306 -272c0 -158 -129 -271 -306 -271c-185 0 -309 113 -309 271zM211 256c0 -70 48 -120 120 -120c69 0 119 50 119 120c0 71 -53 121 -119 121c-67 0 -120 -50 -120 -121z" />
    <glyph glyph-name="oacute" unicode="&#xf3;" horiz-adv-x="661" 
d="M232 664l203 176l91 -115l-238 -138zM23 256c0 -158 124 -271 309 -271c177 0 306 113 306 271c0 160 -136 272 -306 272c-173 0 -309 -112 -309 -272zM211 256c0 71 53 121 120 121c66 0 119 -50 119 -121c0 -70 -50 -120 -119 -120c-72 0 -120 50 -120 120z" />
    <glyph glyph-name="ocircumflex" unicode="&#xf4;" horiz-adv-x="661" 
d="M109 678l221 162l221 -162l-68 -91l-153 112l-153 -112zM23 256c0 -158 124 -271 309 -271c177 0 306 113 306 271c0 160 -136 272 -306 272c-173 0 -309 -112 -309 -272zM211 256c0 71 53 121 120 121c66 0 119 -50 119 -121c0 -70 -50 -120 -119 -120
c-72 0 -120 50 -120 120z" />
    <glyph glyph-name="odieresis" unicode="&#xf6;" horiz-adv-x="661" 
d="M212 791c51 0 92 -41 92 -92s-41 -92 -92 -92s-92 41 -92 92s41 92 92 92zM449 791c51 0 92 -41 92 -92s-41 -92 -92 -92s-92 41 -92 92s41 92 92 92zM23 256c0 -158 124 -271 309 -271c177 0 306 113 306 271c0 160 -136 272 -306 272c-173 0 -309 -112 -309 -272z
M211 256c0 71 53 121 120 121c66 0 119 -50 119 -121c0 -70 -50 -120 -119 -120c-72 0 -120 50 -120 120z" />
    <glyph glyph-name="ograve" unicode="&#xf2;" horiz-adv-x="661" 
d="M185 840l203 -176l-56 -77l-238 138zM23 256c0 -158 124 -271 309 -271c177 0 306 113 306 271c0 160 -136 272 -306 272c-173 0 -309 -112 -309 -272zM211 256c0 71 53 121 120 121c66 0 119 -50 119 -121c0 -70 -50 -120 -119 -120c-72 0 -120 50 -120 120z" />
    <glyph glyph-name="ohungarumlaut" unicode="&#x151;" horiz-adv-x="661" 
d="M123 664l173 196l82 -104l-199 -169zM334 664l173 196l82 -104l-199 -169zM23 256c0 -158 124 -271 309 -271c177 0 306 113 306 271c0 160 -136 272 -306 272c-173 0 -309 -112 -309 -272zM211 256c0 71 53 121 120 121c66 0 119 -50 119 -121c0 -70 -50 -120 -119 -120
c-72 0 -120 50 -120 120z" />
    <glyph glyph-name="omacron" unicode="&#x14d;" horiz-adv-x="661" 
d="M126 754h408v-120h-408v120zM23 256c0 -158 124 -271 309 -271c177 0 306 113 306 271c0 160 -136 272 -306 272c-173 0 -309 -112 -309 -272zM211 256c0 71 53 121 120 121c66 0 119 -50 119 -121c0 -70 -50 -120 -119 -120c-72 0 -120 50 -120 120z" />
    <glyph glyph-name="oslash" unicode="&#xf8;" horiz-adv-x="661" 
d="M668 484l-85 -69c35 -43 55 -98 55 -159c0 -158 -129 -271 -306 -271c-82 0 -153 22 -205 61l-89 -72l-45 54l83 67c-34 44 -53 99 -53 161c0 160 136 272 309 272c77 0 147 -23 201 -63l90 73zM211 256c0 -17 2 -32 7 -46l181 146c-19 13 -43 21 -68 21
c-67 0 -120 -50 -120 -121zM331 136c69 0 119 50 119 120c0 16 -3 31 -8 45l-180 -146c19 -12 42 -19 69 -19z" />
    <glyph glyph-name="otilde" unicode="&#xf5;" horiz-adv-x="661" 
d="M321 642c0 0 -40 19 -76 19c-32 0 -45 -46 -45 -46h-101s26 172 136 172c39 0 104 -27 104 -27s40 -19 76 -19c32 0 45 46 45 46h101s-26 -172 -136 -172c-39 0 -104 27 -104 27zM23 256c0 -158 124 -271 309 -271c177 0 306 113 306 271c0 160 -136 272 -306 272
c-173 0 -309 -112 -309 -272zM211 256c0 71 53 121 120 121c66 0 119 -50 119 -121c0 -70 -50 -120 -119 -120c-72 0 -120 50 -120 120z" />
    <glyph glyph-name="oe" unicode="&#x153;" horiz-adv-x="1021" 
d="M997 232h-372c0 -79 66 -106 111 -106c57 0 82 11 125 57l128 -64c-58 -97 -152 -134 -266 -134c-120 0 -202 81 -202 81s-68 -81 -195 -81c-185 0 -303 113 -303 271c0 160 130 272 303 272c123 0 194 -82 194 -82s74 82 203 82c156 0 275 -92 275 -272
c0 -7 0 -18 -1 -24zM630 330h195c-8 54 -45 83 -97 83c-61 0 -95 -36 -98 -83zM208 256c0 -70 48 -120 120 -120c69 0 119 50 119 120c0 71 -53 121 -119 121c-67 0 -120 -50 -120 -121z" />
    <glyph glyph-name="p" unicode="p" 
d="M660 257c0 -150 -105 -272 -255 -272c-69 0 -126 23 -168 64v-309h-177v773h175v-58h2c38 42 98 73 168 73c150 0 255 -121 255 -271zM472 257c0 70 -48 120 -120 120c-69 0 -119 -50 -119 -120c0 -71 53 -121 119 -121c67 0 120 50 120 121z" />
    <glyph glyph-name="thorn" unicode="&#xfe;" 
d="M660 256c0 -150 -105 -271 -255 -271c-70 0 -130 31 -168 73h-2v-318h-175v1120h177v-396c42 41 99 64 168 64c150 0 255 -122 255 -272zM472 256c0 71 -53 121 -120 121c-66 0 -119 -50 -119 -121c0 -70 50 -120 119 -120c72 0 120 50 120 120z" />
    <glyph glyph-name="q" unicode="q" 
d="M23 257c0 150 105 271 255 271c70 0 130 -31 168 -73h2v58h175v-773h-177v309c-42 -41 -99 -64 -168 -64c-150 0 -255 122 -255 272zM211 257c0 -71 53 -121 120 -121c66 0 119 50 119 121c0 70 -50 120 -119 120c-72 0 -120 -50 -120 -120z" />
    <glyph glyph-name="r" unicode="r" horiz-adv-x="498" 
d="M60 0v513h177v-74h2s56 89 157 89c66 0 112 -32 112 -32l-74 -150s-33 28 -92 28c-92 0 -105 -91 -105 -104v-270h-177z" />
    <glyph glyph-name="racute" unicode="&#x155;" horiz-adv-x="498" 
d="M150 664l203 176l91 -115l-238 -138zM237 0v270c0 13 13 104 105 104c59 0 92 -28 92 -28l74 150s-46 32 -112 32c-101 0 -157 -89 -157 -89h-2v74h-177v-513h177z" />
    <glyph glyph-name="rcaron" unicode="&#x159;" horiz-adv-x="498" 
d="M96 840l153 -112l153 112l68 -91l-221 -162l-221 162zM237 0v270c0 13 13 104 105 104c59 0 92 -28 92 -28l74 150s-46 32 -112 32c-101 0 -157 -89 -157 -89h-2v74h-177v-513h177z" />
    <glyph glyph-name="rcommaaccent" unicode="&#x157;" horiz-adv-x="498" 
d="M60 0v513h177v-74h2s56 89 157 89c66 0 112 -32 112 -32l-74 -150s-33 28 -92 28c-92 0 -105 -91 -105 -104v-270h-177zM148 -40c50 0 90 -40 90 -90c0 -93 -67 -169 -130 -221l-40 31s47 45 59 110c-38 9 -67 40 -67 80c0 50 40 90 88 90z" />
    <glyph glyph-name="s" unicode="s" horiz-adv-x="492" 
d="M283 528c99 0 172 -40 172 -40l-58 -116s-60 32 -114 32c-39 0 -55 -7 -55 -31c0 -27 36 -35 80 -49c68 -21 156 -59 156 -164c0 -151 -138 -175 -243 -175c-124 0 -198 69 -198 69l72 121s70 -59 127 -59c25 0 55 3 55 37c0 37 -56 40 -114 70c-52 27 -104 63 -104 140
c0 105 89 165 224 165z" />
    <glyph glyph-name="sacute" unicode="&#x15b;" horiz-adv-x="492" 
d="M139 664l203 176l91 -115l-238 -138zM283 528c99 0 172 -40 172 -40l-58 -116s-60 32 -114 32c-39 0 -55 -7 -55 -31c0 -27 36 -35 80 -49c68 -21 156 -59 156 -164c0 -151 -138 -175 -243 -175c-124 0 -198 69 -198 69l72 121s70 -59 127 -59c25 0 55 3 55 37
c0 37 -56 40 -114 70c-52 27 -104 63 -104 140c0 105 89 165 224 165z" />
    <glyph glyph-name="scaron" unicode="&#x161;" horiz-adv-x="492" 
d="M93 840l153 -112l153 112l68 -91l-221 -162l-221 162zM283 528c99 0 172 -40 172 -40l-58 -116s-60 32 -114 32c-39 0 -55 -7 -55 -31c0 -27 36 -35 80 -49c68 -21 156 -59 156 -164c0 -151 -138 -175 -243 -175c-124 0 -198 69 -198 69l72 121s70 -59 127 -59
c25 0 55 3 55 37c0 37 -56 40 -114 70c-52 27 -104 63 -104 140c0 105 89 165 224 165z" />
    <glyph glyph-name="scommaaccent" unicode="&#x219;" horiz-adv-x="492" 
d="M283 528c99 0 172 -40 172 -40l-58 -116s-60 32 -114 32c-39 0 -55 -7 -55 -31c0 -27 36 -35 80 -49c68 -21 156 -59 156 -164c0 -151 -138 -175 -243 -175c-124 0 -198 69 -198 69l72 121s70 -59 127 -59c25 0 55 3 55 37c0 37 -56 40 -114 70c-52 27 -104 63 -104 140
c0 105 89 165 224 165zM245 -40c-48 0 -88 -40 -88 -90c0 -40 29 -71 67 -80c-12 -65 -59 -110 -59 -110l40 -31c63 52 130 128 130 221c0 50 -40 90 -90 90z" />
    <glyph glyph-name="germandbls" unicode="&#xdf;" horiz-adv-x="656" 
d="M326 -15v162c69 0 119 47 119 117c0 74 -43 125 -119 125v135c58 0 108 43 108 106c0 60 -33 96 -91 96c-34 0 -76 -31 -76 -90v-636h-177v325h-66v135h66v162c0 150 119 253 253 253c154 -3 258 -107 258 -245c0 -79 -39 -136 -100 -170c80 -37 132 -104 132 -205
c0 -158 -129 -270 -307 -270z" />
    <glyph glyph-name="t" unicode="t" horiz-adv-x="395" 
d="M90 513v191h177v-191h108v-135h-108v-163c0 -48 12 -71 40 -71c23 0 44 16 44 16l44 -143s-57 -32 -130 -32c-141 0 -175 105 -175 196v197h-74v135h74z" />
    <glyph glyph-name="tcaron" unicode="&#x165;" horiz-adv-x="436" 
d="M476 824c50 0 90 -40 90 -90c0 -93 -67 -169 -130 -221l-40 31s47 45 59 110c-38 9 -67 40 -67 80c0 50 40 90 88 90zM90 513v191h177v-191h108v-135h-108v-163c0 -48 12 -71 40 -71c23 0 44 16 44 16l44 -143s-57 -32 -130 -32c-141 0 -175 105 -175 196v197h-74v135h74
z" />
    <glyph glyph-name="uni021B" unicode="&#x21b;" horiz-adv-x="395" 
d="M90 513v191h177v-191h108v-135h-108v-163c0 -48 12 -71 40 -71c23 0 44 16 44 16l44 -143s-57 -32 -130 -32c-141 0 -175 105 -175 196v197h-74v135h74zM196 -40c50 0 90 -40 90 -90c0 -93 -67 -169 -130 -221l-40 31s47 45 59 110c-38 9 -67 40 -67 80c0 50 40 90 88 90
z" />
    <glyph glyph-name="u" unicode="u" horiz-adv-x="656" 
d="M227 513v-244c0 -101 27 -140 101 -140s101 39 101 140v244h177v-287c0 -172 -86 -241 -278 -241s-278 69 -278 241v287h177z" />
    <glyph glyph-name="uacute" unicode="&#xfa;" horiz-adv-x="656" 
d="M269 664l203 176l91 -115l-238 -138zM50 513v-287c0 -172 86 -241 278 -241s278 69 278 241v287h-177v-244c0 -101 -27 -140 -101 -140s-101 39 -101 140v244h-177z" />
    <glyph glyph-name="ucircumflex" unicode="&#xfb;" horiz-adv-x="656" 
d="M107 678l221 162l221 -162l-68 -91l-153 112l-153 -112zM50 513v-287c0 -172 86 -241 278 -241s278 69 278 241v287h-177v-244c0 -101 -27 -140 -101 -140s-101 39 -101 140v244h-177z" />
    <glyph glyph-name="udieresis" unicode="&#xfc;" horiz-adv-x="656" 
d="M209 791c51 0 92 -41 92 -92s-41 -92 -92 -92s-92 41 -92 92s41 92 92 92zM446 791c51 0 92 -41 92 -92s-41 -92 -92 -92s-92 41 -92 92s41 92 92 92zM50 513v-287c0 -172 86 -241 278 -241s278 69 278 241v287h-177v-244c0 -101 -27 -140 -101 -140s-101 39 -101 140
v244h-177z" />
    <glyph glyph-name="ugrave" unicode="&#xf9;" horiz-adv-x="656" 
d="M183 840l203 -176l-56 -77l-238 138zM50 513v-287c0 -172 86 -241 278 -241s278 69 278 241v287h-177v-244c0 -101 -27 -140 -101 -140s-101 39 -101 140v244h-177z" />
    <glyph glyph-name="uhungarumlaut" unicode="&#x171;" horiz-adv-x="656" 
d="M121 664l173 196l82 -104l-199 -169zM332 664l173 196l82 -104l-199 -169zM50 513v-287c0 -172 86 -241 278 -241s278 69 278 241v287h-177v-244c0 -101 -27 -140 -101 -140s-101 39 -101 140v244h-177z" />
    <glyph glyph-name="umacron" unicode="&#x16b;" horiz-adv-x="656" 
d="M124 754h408v-120h-408v120zM50 513v-287c0 -172 86 -241 278 -241s278 69 278 241v287h-177v-244c0 -101 -27 -140 -101 -140s-101 39 -101 140v244h-177z" />
    <glyph glyph-name="uogonek" unicode="&#x173;" horiz-adv-x="656" 
d="M221 -158c0 50 38 107 69 144c-166 9 -240 80 -240 240v287h177v-244c0 -101 27 -140 101 -140s101 39 101 140v244h177v-287c0 -158 -73 -229 -234 -240c-17 -24 -48 -75 -48 -126c0 -25 20 -39 37 -39c31 0 51 30 51 30l72 -54s-45 -72 -137 -72
c-52 0 -126 30 -126 117z" />
    <glyph glyph-name="uring" unicode="&#x16f;" horiz-adv-x="656" 
d="M167 733c0 83 71 142 161 142c91 0 161 -59 161 -142c0 -84 -67 -143 -161 -143c-96 0 -161 59 -161 143zM267 733c0 -35 25 -64 61 -64c35 0 61 29 61 64c0 34 -27 62 -61 62c-33 0 -61 -28 -61 -62zM227 513v-244c0 -101 27 -140 101 -140s101 39 101 140v244h177v-287
c0 -172 -86 -241 -278 -241s-278 69 -278 241v287h177z" />
    <glyph glyph-name="v" unicode="v" horiz-adv-x="630" 
d="M190 513l125 -279l125 279h210l-275 -513h-120l-275 513h210z" />
    <glyph glyph-name="w" unicode="w" horiz-adv-x="986" 
d="M375 0h-120l-275 513h204l125 -277l123 277h122l123 -277l125 277h204l-275 -513h-120l-118 265z" />
    <glyph glyph-name="x" unicode="x" horiz-adv-x="654" 
d="M654 0h-214l-113 145l-113 -145h-214l219 268l-188 245h207l89 -119l89 119h207l-188 -245z" />
    <glyph glyph-name="y" unicode="y" horiz-adv-x="633" 
d="M449 513h204l-403 -773h-204l177 340l-243 433h204l143 -263z" />
    <glyph glyph-name="yacute" unicode="&#xfd;" horiz-adv-x="633" 
d="M219 664l203 176l91 -115l-238 -138zM449 513h204l-403 -773h-204l177 340l-243 433h204l143 -263z" />
    <glyph glyph-name="ydieresis" unicode="&#xff;" horiz-adv-x="633" 
d="M198 791c51 0 92 -41 92 -92s-41 -92 -92 -92s-92 41 -92 92s41 92 92 92zM435 791c51 0 92 -41 92 -92s-41 -92 -92 -92s-92 41 -92 92s41 92 92 92zM449 513h204l-403 -773h-204l177 340l-243 433h204l143 -263z" />
    <glyph glyph-name="z" unicode="z" horiz-adv-x="561" 
d="M556 513l-254 -378h234v-135h-531l254 378h-212v135h509z" />
    <glyph glyph-name="zacute" unicode="&#x17a;" horiz-adv-x="561" 
d="M190 664l203 176l91 -115l-238 -138zM556 513l-254 -378h234v-135h-531l254 378h-212v135h509z" />
    <glyph glyph-name="zcaron" unicode="&#x17e;" horiz-adv-x="561" 
d="M128 840l153 -112l153 112l68 -91l-221 -162l-221 162zM556 513l-254 -378h234v-135h-531l254 378h-212v135h509z" />
    <glyph glyph-name="zdotaccent" unicode="&#x17c;" horiz-adv-x="561" 
d="M280 791c51 0 92 -41 92 -92s-41 -92 -92 -92s-92 41 -92 92s41 92 92 92zM556 513l-254 -378h234v-135h-531l254 378h-212v135h509z" />
    <glyph glyph-name="f_f" unicode="&#xfb00;" horiz-adv-x="750" 
d="M465 513v109c1 150 73 253 201 253c90 0 146 -46 146 -46l-62 -125s-24 14 -53 14c-45 0 -55 -30 -55 -101v-104h118v-135h-118v-378h-177v378h-178v-378h-177v378h-74v135h74v109c1 150 73 253 201 253c90 0 146 -46 146 -46l-62 -125s-24 14 -53 14
c-45 0 -55 -30 -55 -101v-104h178z" />
    <glyph glyph-name="f_f_i" unicode="&#xfb03;" horiz-adv-x="1047" 
d="M810 0v378h-168v-378h-177v378h-178v-378h-177v378h-74v135h74v109c1 150 73 253 201 253c90 0 146 -46 146 -46l-62 -125s-24 14 -53 14c-45 0 -55 -30 -55 -101v-104h178v109c1 150 71 253 211 253c138 0 231 -83 231 -83l-62 -125s-64 52 -117 52
c-70 0 -86 -31 -86 -102v-104h345v-513h-177z" />
    <glyph glyph-name="f_f_j" horiz-adv-x="1047" 
d="M987 513v-592c0 -91 -44 -196 -185 -196c-84 0 -116 21 -141 32l55 143s23 -15 45 -15c30 0 49 22 49 70v423h-168v-378h-177v378h-178v-378h-177v378h-74v135h74v109c1 150 73 253 201 253c90 0 146 -46 146 -46l-62 -125s-24 14 -53 14c-45 0 -55 -30 -55 -101v-104
h178v109c1 150 71 253 211 253c138 0 231 -83 231 -83l-62 -125s-64 52 -117 52c-70 0 -86 -31 -86 -102v-104h345z" />
    <glyph glyph-name="f_f_l" unicode="&#xfb04;" horiz-adv-x="1047" 
d="M110 513v109c1 150 73 253 201 253c90 0 146 -46 146 -46l-62 -125s-24 14 -53 14c-45 0 -55 -30 -55 -101v-104h178v109c1 150 73 253 201 253c58 0 101 -18 125 -32l-41 -139s-24 14 -53 14c-45 0 -55 -30 -55 -101v-104h118v-135h-118v-378h-177v378h-178v-378h-177
v378h-74v135h74zM810 0v860h177v-860h-177z" />
    <glyph glyph-name="f_f_t" horiz-adv-x="1115" 
d="M110 513v109c1 150 73 253 201 253c90 0 146 -46 146 -46l-62 -125s-24 14 -53 14c-45 0 -55 -30 -55 -101v-104h178v109c1 150 73 253 201 253c90 0 146 -46 146 -46l-62 -125s-24 14 -53 14c-45 0 -55 -30 -55 -101v-104h168v191h177v-191h108v-135h-108v-163
c0 -48 12 -71 40 -71c23 0 44 16 44 16l44 -143s-57 -32 -130 -32c-141 0 -175 105 -175 196v197h-168v-378h-177v378h-178v-378h-177v378h-74v135h74z" />
    <glyph glyph-name="f_j" horiz-adv-x="672" 
d="M612 513v-592c0 -91 -44 -196 -185 -196c-84 0 -116 21 -141 32l55 143s23 -15 45 -15c30 0 49 22 49 70v423h-168v-378h-177v378h-74v135h74v109c1 150 71 253 211 253c138 0 231 -83 231 -83l-62 -125s-64 52 -117 52c-70 0 -86 -31 -86 -102v-104h345z" />
    <glyph glyph-name="f_t" horiz-adv-x="740" 
d="M90 513v109c1 150 73 253 201 253c90 0 146 -46 146 -46l-62 -125s-24 14 -53 14c-45 0 -55 -30 -55 -101v-104h168v191h177v-191h108v-135h-108v-163c0 -48 12 -71 40 -71c23 0 44 16 44 16l44 -143s-57 -32 -130 -32c-141 0 -175 105 -175 196v197h-168v-378h-177v378
h-74v135h74z" />
    <glyph glyph-name="fi" unicode="&#xfb01;" horiz-adv-x="672" 
d="M435 0v378h-168v-378h-177v378h-74v135h74v109c1 150 71 253 211 253c138 0 231 -83 231 -83l-62 -125s-64 52 -117 52c-70 0 -86 -31 -86 -102v-104h345v-513h-177z" />
    <glyph glyph-name="fl" unicode="&#xfb02;" horiz-adv-x="672" 
d="M90 513v109c1 150 73 253 201 253c58 0 101 -18 125 -32l-41 -139s-24 14 -53 14c-45 0 -55 -30 -55 -101v-104h118v-135h-118v-378h-177v378h-74v135h74zM435 0v860h177v-860h-177z" />
    <glyph glyph-name="ordfeminine" unicode="&#xaa;" horiz-adv-x="512" 
d="M70 671c0 93 65 169 158 169c43 0 78 -15 105 -40v30h109v-317h-108v36h-1c-24 -26 -61 -45 -105 -45c-93 0 -158 75 -158 167zM187 671c0 -43 30 -74 74 -74c43 0 74 31 74 74c0 44 -33 75 -74 75s-74 -31 -74 -75z" />
    <glyph glyph-name="ordmasculine" unicode="&#xba;" horiz-adv-x="521" 
d="M70 671c0 99 85 169 192 169c105 0 189 -70 189 -169c0 -97 -80 -167 -189 -167c-115 0 -192 70 -192 167zM187 671c0 -43 29 -74 74 -74c43 0 74 31 74 74c0 44 -33 75 -74 75s-74 -31 -74 -75z" />
    <glyph glyph-name="zero" unicode="0" horiz-adv-x="727" 
d="M28 412c0 286 159 428 336 428s335 -142 335 -428c0 -306 -158 -427 -335 -427s-336 121 -336 427zM218 412c0 -178 55 -262 146 -262c90 0 145 84 145 262c0 167 -55 263 -145 263c-91 0 -146 -97 -146 -263z" />
    <glyph glyph-name="one" unicode="1" horiz-adv-x="413" 
d="M29 487v186l235 152h89v-825h-188v575z" />
    <glyph glyph-name="two" unicode="2" horiz-adv-x="753" 
d="M363 681c-90 0 -147 -157 -147 -157l-157 76s80 240 304 240c283 0 320 -186 320 -290c0 -193 -291 -385 -291 -385h306v-165h-643v47s425 351 425 503c0 30 -7 131 -117 131z" />
    <glyph glyph-name="three" unicode="3" horiz-adv-x="665" 
d="M205 587l-148 72s42 181 273 181c157 0 271 -100 271 -240c0 -68 -28 -120 -73 -155c64 -39 105 -102 105 -189c0 -158 -129 -271 -306 -271c-254 0 -310 203 -310 203l174 85s11 -126 135 -126c69 0 119 39 119 109c0 71 -53 121 -119 121c-20 0 -36 -6 -36 -6v123h41
c50 0 99 44 99 104c0 53 -49 91 -102 91c-104 0 -123 -102 -123 -102z" />
    <glyph glyph-name="four" unicode="4" horiz-adv-x="666" 
d="M557 339h96v-165h-96v-174h-176v174h-406v56l396 595h186v-486zM381 574h-2l-147 -235h149v235z" />
    <glyph glyph-name="five" unicode="5" horiz-adv-x="641" 
d="M18 164l149 72c15 -51 59 -94 145 -94c68 0 118 50 118 120c0 109 -107 145 -214 145c-69 0 -116 -15 -141 -26l69 444h421v-165h-260l-18 -115c7 0 15 1 23 1c156 -1 308 -61 308 -290c0 -158 -129 -271 -306 -271c-176 0 -263 95 -294 179z" />
    <glyph glyph-name="six" unicode="6" horiz-adv-x="689" 
d="M580 825l-243 -283s21 12 59 12c113 0 263 -97 263 -289c0 -195 -157 -280 -306 -280c-185 0 -329 122 -329 280c0 145 44 212 130 329l194 231h232zM219 265c0 -72 52 -125 125 -125s127 53 127 125c0 74 -56 128 -127 128c-69 0 -125 -54 -125 -128z" />
    <glyph glyph-name="seven" unicode="7" horiz-adv-x="688" 
d="M713 825v-55l-436 -770h-222l380 660h-355v165h633z" />
    <glyph glyph-name="eight" unicode="8" horiz-adv-x="687" 
d="M613 632c0 -91 -44 -151 -106 -187c83 -38 145 -110 145 -223c0 -139 -153 -237 -308 -237c-160 0 -309 98 -309 237c0 113 61 185 144 223c-63 36 -109 96 -109 187c0 122 137 208 273 208c141 0 270 -86 270 -208zM435 605c0 53 -37 93 -91 93c-53 0 -93 -40 -93 -93
c0 -55 42 -92 93 -92c53 0 91 37 91 92zM239 252c0 -61 42 -105 104 -105c60 0 105 44 105 105c0 62 -47 105 -105 105c-59 0 -104 -43 -104 -105z" />
    <glyph glyph-name="nine" unicode="9" horiz-adv-x="689" 
d="M109 0l243 283s-21 -12 -59 -12c-113 0 -263 97 -263 289c0 195 157 280 306 280c185 0 329 -122 329 -280c0 -145 -44 -212 -130 -329l-194 -231h-232zM470 560c0 72 -52 125 -125 125s-127 -53 -127 -125c0 -74 56 -128 127 -128c69 0 125 54 125 128z" />
    <glyph glyph-name="fraction" unicode="&#x2044;" horiz-adv-x="264" 
d="M431 825l-480 -825h-118l480 825h118z" />
    <glyph glyph-name="onehalf" unicode="&#xbd;" horiz-adv-x="945" 
d="M60 628v109l136 88h52v-480h-109v335zM699 825l-480 -825h-118l480 825h118zM710 391c-51 0 -84 -90 -84 -90l-90 43s46 138 174 138c163 0 184 -107 184 -166c0 -111 -167 -221 -167 -221h176v-95h-369v27s244 201 244 289c0 17 -4 75 -68 75z" />
    <glyph glyph-name="onequarter" unicode="&#xbc;" horiz-adv-x="876" 
d="M60 628v109l136 88h52v-480h-109v335zM699 825l-480 -825h-118l480 825h118zM787 197h55v-96h-55v-101h-103v101h-236v33l231 346h108v-283zM684 334h-1l-85 -137h86v137z" />
    <glyph glyph-name="threequarters" unicode="&#xbe;" horiz-adv-x="977" 
d="M142 685l-84 41s24 102 156 102c89 0 153 -56 153 -136c0 -39 -15 -68 -41 -88c36 -22 60 -58 60 -107c0 -90 -74 -155 -174 -155c-145 0 -176 116 -176 116l99 48s6 -71 76 -71c39 0 68 22 68 62s-30 68 -68 68c-11 0 -20 -3 -20 -3v70h23c28 0 56 25 56 59
c0 30 -28 52 -58 52c-59 0 -70 -58 -70 -58zM800 825l-480 -825h-118l480 825h118zM888 197h55v-96h-55v-101h-103v101h-236v33l231 346h108v-283zM785 334h-1l-85 -137h86v137z" />
    <glyph glyph-name="onesuperior" unicode="&#xb9;" horiz-adv-x="140" 
d="M9 697v71l88 57h34v-312h-71v217z" />
    <glyph glyph-name="twosuperior" unicode="&#xb2;" horiz-adv-x="267" 
d="M152 778c-35 0 -57 -61 -57 -61l-61 30s31 93 118 93c111 0 125 -72 125 -113c0 -75 -113 -150 -113 -150h119v-64h-251v18s166 137 166 196c0 12 -3 51 -46 51z" />
    <glyph glyph-name="threesuperior" unicode="&#xb3;" horiz-adv-x="253" 
d="M81 744l-56 27s16 69 104 69c60 0 103 -38 103 -92c0 -26 -10 -45 -28 -59c25 -15 40 -39 40 -72c0 -61 -49 -104 -116 -104c-97 0 -119 78 -119 78l67 32s4 -48 51 -48c27 0 46 15 46 42s-20 46 -46 46c-7 0 -13 -2 -13 -2v47h15c19 0 38 17 38 40c0 20 -19 35 -39 35
c-40 0 -47 -39 -47 -39z" />
    <glyph glyph-name="asterisk" unicode="*" horiz-adv-x="488" 
d="M402 778l26 -80l-114 -41l66 -99l-66 -45l-70 91l-70 -91l-66 45l66 99l-114 41l26 80l114 -35l1 117h86l1 -117z" />
    <glyph glyph-name="backslash" unicode="\" horiz-adv-x="611" 
d="M435 0l-412 860h153l412 -860h-153z" />
    <glyph glyph-name="bullet" unicode="&#x2022;" horiz-adv-x="716" 
d="M357 553c109 0 197 -88 197 -197c0 -108 -88 -195 -197 -195c-108 0 -195 87 -195 195c0 109 87 197 195 197z" />
    <glyph glyph-name="colon" unicode=":" horiz-adv-x="349" 
d="M174 554c64 0 115 -51 115 -115c0 -63 -51 -114 -115 -114c-63 0 -114 51 -114 114c0 64 51 115 114 115zM174 214c64 0 115 -51 115 -115c0 -63 -51 -114 -115 -114c-63 0 -114 51 -114 114c0 64 51 115 114 115z" />
    <glyph glyph-name="comma" unicode="," horiz-adv-x="349" 
d="M174 214c64 0 115 -51 115 -115c0 -121 -86 -219 -168 -287l-51 42s60 57 76 140c-49 12 -86 52 -86 105c0 64 51 115 114 115z" />
    <glyph glyph-name="ellipsis" unicode="&#x2026;" horiz-adv-x="1047" 
d="M174 214c64 0 115 -51 115 -115c0 -63 -51 -114 -115 -114c-63 0 -114 51 -114 114c0 64 51 115 114 115zM523 214c64 0 115 -51 115 -115c0 -63 -51 -114 -115 -114c-63 0 -114 51 -114 114c0 64 51 115 114 115zM872 214c64 0 115 -51 115 -115
c0 -63 -51 -114 -115 -114c-63 0 -114 51 -114 114c0 64 51 115 114 115z" />
    <glyph glyph-name="exclam" unicode="!" horiz-adv-x="349" 
d="M110 270l-24 590h177l-24 -590h-129zM174 214c64 0 115 -51 115 -115c0 -63 -51 -114 -115 -114c-63 0 -114 51 -114 114c0 64 51 115 114 115z" />
    <glyph glyph-name="exclamdown" unicode="&#xa1;" horiz-adv-x="349" 
d="M174 386c-63 0 -114 51 -114 115c0 63 51 114 114 114c64 0 115 -51 115 -114c0 -64 -51 -115 -115 -115zM86 -260l24 590h129l24 -590h-177z" />
    <glyph glyph-name="numbersign" unicode="#" horiz-adv-x="833" 
d="M294 219l-57 -219h-124l57 219h-102l32 121h102l38 146h-107l32 121h107l57 218h124l-57 -218h108l57 218h124l-57 -218h102l-32 -121h-102l-38 -146h107l-32 -121h-107l-57 -219h-124l57 219h-108zM434 340l38 146h-108l-38 -146h108z" />
    <glyph glyph-name="period" unicode="." horiz-adv-x="349" 
d="M174 214c64 0 115 -51 115 -115c0 -63 -51 -114 -115 -114c-63 0 -114 51 -114 114c0 64 51 115 114 115z" />
    <glyph glyph-name="periodcentered" unicode="&#xb7;" horiz-adv-x="349" 
d="M174 384c64 0 115 -51 115 -115c0 -63 -51 -114 -115 -114c-63 0 -114 51 -114 114c0 64 51 115 114 115z" />
    <glyph glyph-name="question" unicode="?" horiz-adv-x="596" 
d="M170 580l-147 71c0 5 43 189 266 189c150 0 284 -98 284 -239c0 -98 -73 -158 -169 -199c-34 -15 -35 -43 -35 -76v-56h-165v109c0 44 2 80 47 109c61 39 118 42 118 113c0 48 -36 82 -81 82c-72 0 -107 -60 -118 -103zM286 214c64 0 115 -51 115 -115
c0 -63 -51 -114 -115 -114c-63 0 -114 51 -114 114c0 64 51 115 114 115z" />
    <glyph glyph-name="questiondown" unicode="&#xbf;" horiz-adv-x="596" 
d="M310 351c-64 0 -115 51 -115 115c0 63 51 114 115 114c63 0 114 -51 114 -114c0 -64 -51 -115 -114 -115zM573 -86l-147 71c-11 -43 -46 -103 -118 -103c-45 0 -81 34 -81 82c0 71 57 74 118 113c45 29 47 65 47 109v109h-165v-56c0 -33 -1 -61 -35 -76
c-96 -41 -169 -101 -169 -199c0 -141 134 -239 284 -239c223 0 266 184 266 189z" />
    <glyph glyph-name="quotedbl" unicode="&#x22;" horiz-adv-x="513" 
d="M145 840c46 0 86 -36 86 -75v-4c0 -46 -62 -286 -62 -286h-67s-42 240 -42 286v4c0 39 40 75 85 75zM367 840c46 0 86 -36 86 -75v-4c0 -46 -62 -286 -62 -286h-67s-42 240 -42 286v4c0 39 40 75 85 75z" />
    <glyph glyph-name="quotesingle" unicode="'" horiz-adv-x="291" 
d="M145 840c46 0 86 -36 86 -75v-4c0 -46 -62 -286 -62 -286h-67s-42 240 -42 286v4c0 39 40 75 85 75z" />
    <glyph glyph-name="semicolon" unicode=";" horiz-adv-x="349" 
d="M174 554c64 0 115 -51 115 -115c0 -63 -51 -114 -115 -114c-63 0 -114 51 -114 114c0 64 51 115 114 115zM174 214c-63 0 -114 -51 -114 -115c0 -53 37 -93 86 -105c-16 -83 -76 -140 -76 -140l51 -42c82 68 168 166 168 287c0 64 -51 115 -115 115z" />
    <glyph glyph-name="slash" unicode="/" horiz-adv-x="611" 
d="M588 860l-412 -980h-153l412 980h153z" />
    <glyph glyph-name="underscore" unicode="_" horiz-adv-x="513" 
d="M0 -15h513v-85h-513v85z" />
    <glyph glyph-name="braceleft" unicode="{" horiz-adv-x="446" 
d="M60 253v94c43 0 70 19 70 65v267c0 83 31 181 159 181h97v-128h-40c-35 0 -63 -28 -63 -68v-257c0 -57 -27 -89 -61 -107c34 -18 61 -51 61 -107v-257c0 -40 28 -68 63 -68h40v-128h-97c-128 0 -159 98 -159 181v267c0 46 -27 65 -70 65z" />
    <glyph glyph-name="braceright" unicode="}" horiz-adv-x="446" 
d="M386 347v-94c-43 0 -70 -19 -70 -65v-267c0 -83 -31 -181 -159 -181h-97v128h40c35 0 63 28 63 68v257c0 56 27 89 61 107c-34 18 -61 50 -61 107v257c0 40 -28 68 -63 68h-40v128h97c128 0 159 -98 159 -181v-267c0 -46 27 -65 70 -65z" />
    <glyph glyph-name="bracketleft" unicode="[" horiz-adv-x="442" 
d="M60 860h322v-117h-169v-886h169v-117h-322v1120z" />
    <glyph glyph-name="bracketright" unicode="]" horiz-adv-x="442" 
d="M60 -143h169v886h-169v117h322v-1120h-322v117z" />
    <glyph glyph-name="parenleft" unicode="(" horiz-adv-x="403" 
d="M345 -211l-115 -49s-175 211 -175 557c0 356 189 578 189 578l115 -49s-141 -171 -141 -529c0 -338 127 -508 127 -508z" />
    <glyph glyph-name="parenright" unicode=")" horiz-adv-x="403" 
d="M173 -260l-115 49s127 170 127 508c0 358 -141 529 -141 529l115 49s189 -222 189 -578c0 -346 -175 -557 -175 -557z" />
    <glyph glyph-name="emdash" unicode="&#x2014;" horiz-adv-x="1080" 
d="M0 366h1080v-153h-1080v153z" />
    <glyph glyph-name="endash" unicode="&#x2013;" horiz-adv-x="540" 
d="M0 366h540v-153h-540v153z" />
    <glyph glyph-name="hyphen" unicode="-" horiz-adv-x="442" 
d="M60 366h322v-153h-322v153z" />
    <glyph glyph-name="guillemotleft" unicode="&#xab;" horiz-adv-x="625" 
d="M228 28l-195 250l195 250l93 -73l-138 -177l138 -177zM478 28l-195 250l195 250l93 -73l-138 -177l138 -177z" />
    <glyph glyph-name="guillemotright" unicode="&#xbb;" horiz-adv-x="625" 
d="M147 528l195 -250l-195 -250l-93 73l138 177l-138 177zM304 101l138 177l-138 177l93 73l195 -250l-195 -250z" />
    <glyph glyph-name="guilsinglleft" unicode="&#x2039;" horiz-adv-x="375" 
d="M228 28l-195 250l195 250l93 -73l-138 -177l138 -177z" />
    <glyph glyph-name="guilsinglright" unicode="&#x203a;" horiz-adv-x="375" 
d="M54 101l138 177l-138 177l93 73l195 -250l-195 -250z" />
    <glyph glyph-name="quotedblbase" unicode="&#x201e;" horiz-adv-x="545" 
d="M164 214c58 0 103 -47 103 -105c0 -109 -77 -198 -151 -259l-47 37s55 52 70 128c-45 11 -79 47 -79 94c0 58 47 105 104 105zM417 214c58 0 105 -47 105 -105c0 -109 -79 -198 -152 -259l-47 37s55 52 69 128c-44 11 -78 47 -78 94c0 58 46 105 103 105z" />
    <glyph glyph-name="quotedblleft" unicode="&#x201c;" horiz-adv-x="545" 
d="M128 476c-58 0 -105 47 -105 105c0 109 79 198 152 259l47 -37s-55 -52 -69 -128c44 -11 78 -47 78 -94c0 -58 -46 -105 -103 -105zM381 476c-58 0 -103 47 -103 105c0 109 77 198 151 259l47 -37s-55 -52 -70 -128c45 -11 79 -47 79 -94c0 -58 -47 -105 -104 -105z" />
    <glyph glyph-name="quotedblright" unicode="&#x201d;" horiz-adv-x="545" 
d="M164 840c58 0 103 -47 103 -105c0 -109 -77 -198 -151 -259l-47 37s55 52 70 128c-45 11 -79 47 -79 94c0 58 47 105 104 105zM417 840c58 0 105 -47 105 -105c0 -109 -79 -198 -152 -259l-47 37s55 52 69 128c-44 11 -78 47 -78 94c0 58 46 105 103 105z" />
    <glyph glyph-name="quoteleft" unicode="&#x2018;" horiz-adv-x="291" 
d="M128 476c-58 0 -105 47 -105 105c0 109 79 198 152 259l47 -37s-55 -52 -69 -128c44 -11 78 -47 78 -94c0 -58 -46 -105 -103 -105z" />
    <glyph glyph-name="quoteright" unicode="&#x2019;" horiz-adv-x="291" 
d="M163 840c58 0 105 -47 105 -105c0 -109 -79 -198 -152 -259l-47 37s55 52 69 128c-44 11 -78 47 -78 94c0 58 46 105 103 105z" />
    <glyph glyph-name="quotesinglbase" unicode="&#x201a;" horiz-adv-x="291" 
d="M163 214c58 0 105 -47 105 -105c0 -109 -79 -198 -152 -259l-47 37s55 52 69 128c-44 11 -78 47 -78 94c0 58 46 105 103 105z" />
    <glyph glyph-name="space" unicode=" " horiz-adv-x="273" 
 />
    <glyph glyph-name="cent" unicode="&#xa2;" horiz-adv-x="491" 
d="M248 -129v121c-123 26 -225 133 -225 263c0 120 85 222 195 258v123h108v-109c101 -5 153 -47 153 -47l-60 -121s-33 24 -86 24c-67 0 -122 -56 -122 -126c0 -71 55 -127 122 -127c53 0 86 24 86 24l60 -123s-43 -32 -123 -43v-117h-108z" />
    <glyph glyph-name="dollar" unicode="$" horiz-adv-x="672" 
d="M415 963v-141c116 -15 195 -72 195 -72l-73 -144s-80 54 -162 54c-63 0 -95 -27 -95 -71c0 -47 75 -77 166 -115c89 -38 187 -113 187 -218c0 -156 -97 -228 -218 -249v-145h-108v138c-172 9 -274 105 -274 105l91 152s107 -90 196 -90c39 0 114 4 114 78
c0 60 -85 85 -179 132c-96 48 -152 122 -152 205c0 124 96 213 204 237v144h108z" />
    <glyph glyph-name="Euro" unicode="&#x20ac;" horiz-adv-x="831" 
d="M646 442h-347c-2 -10 -2 -19 -2 -28c0 -11 1 -21 2 -32h347v-108h-303c43 -57 116 -100 225 -100c96 0 162 51 162 51l82 -164s-92 -76 -271 -76c-186 0 -358 121 -422 289h-96v108h72c-1 9 -1 19 -1 29s0 20 1 31h-72v108h96c63 168 236 290 422 290
c179 0 271 -76 271 -76l-82 -164s-66 51 -162 51c-110 0 -183 -44 -226 -101h304v-108z" />
    <glyph glyph-name="sterling" unicode="&#xa3;" horiz-adv-x="749" 
d="M55 387h102c-28 44 -52 96 -52 171c0 156 96 283 281 283c234 0 274 -190 274 -190l-158 -77s-19 115 -116 115c-62 0 -95 -55 -95 -131c0 -82 26 -122 48 -171h173v-98h-137c2 -14 3 -29 3 -46c0 -47 -28 -81 -28 -81c16 0 83 -33 157 -33c57 0 67 72 67 72l137 -68
s-23 -148 -183 -148c-124 0 -217 58 -311 58c-41 0 -47 -43 -47 -43h-115c0 54 56 178 146 178c13 19 16 35 16 58c0 19 -5 36 -12 53h-150v98z" />
    <glyph glyph-name="yen" unicode="&#xa5;" horiz-adv-x="764" 
d="M75 110v133h213v60h-213v133h169l-260 389h226l172 -264l172 264h226l-260 -389h168v-133h-212v-60h212v-133h-212v-110h-188v110h-213z" />
    <glyph glyph-name="asciitilde" unicode="~" horiz-adv-x="694" 
d="M541 521l93 -81s-65 -137 -177 -137c-64 0 -106 26 -147 53c-24 16 -49 32 -73 32c-58 0 -84 -78 -84 -78l-93 81s65 137 177 137c67 0 108 -28 149 -54c24 -16 49 -31 71 -31c58 0 84 78 84 78z" />
    <glyph glyph-name="divide" unicode="&#xf7;" horiz-adv-x="633" 
d="M315 720c46 0 82 -36 82 -82c0 -44 -36 -80 -82 -80c-44 0 -80 36 -80 80c0 46 36 82 80 82zM60 491h513v-153h-513v153zM315 271c46 0 82 -36 82 -82c0 -44 -36 -80 -82 -80c-44 0 -80 36 -80 80c0 46 36 82 80 82z" />
    <glyph glyph-name="equal" unicode="=" horiz-adv-x="633" 
d="M60 611h513v-153h-513v153zM60 371h513v-153h-513v153z" />
    <glyph glyph-name="greater" unicode="&#x3e;" horiz-adv-x="662" 
d="M55 277l358 138l-358 140v142l547 -222v-118l-547 -222v142z" />
    <glyph glyph-name="greaterequal" unicode="&#x2265;" horiz-adv-x="667" 
d="M60 405l358 138l-358 140v142l547 -222v-118l-547 -222v142zM60 153h547v-153h-547v153z" />
    <glyph glyph-name="less" unicode="&#x3c;" horiz-adv-x="662" 
d="M60 475l547 222v-142l-358 -140l358 -138v-142l-547 222v118z" />
    <glyph glyph-name="lessequal" unicode="&#x2264;" horiz-adv-x="667" 
d="M60 603l547 222v-142l-358 -140l358 -138v-142l-547 222v118zM60 153h547v-153h-547v153z" />
    <glyph glyph-name="minus" unicode="&#x2212;" horiz-adv-x="633" 
d="M60 491h513v-153h-513v153z" />
    <glyph glyph-name="multiply" unicode="&#xd7;" horiz-adv-x="633" 
d="M577 262l-107 -108l-153 153l-153 -153l-108 109l152 152l-152 153l108 107l152 -152l153 152l108 -108l-153 -153z" />
    <glyph glyph-name="notequal" unicode="&#x2260;" horiz-adv-x="633" 
d="M153 70h-118l86 148h-61v153h150l50 87h-200v153h289l84 144h118l-84 -144h106v-153h-195l-50 -87h245v-153h-334z" />
    <glyph glyph-name="percent" unicode="%" horiz-adv-x="981" 
d="M23 643c0 116 97 197 223 197c122 0 219 -81 219 -197c0 -114 -91 -197 -219 -197c-135 0 -223 83 -223 197zM791 825l-480 -825h-118l480 825h118zM152 643c0 -54 38 -91 92 -91c51 0 90 37 90 91s-40 93 -90 93c-51 0 -92 -39 -92 -93zM516 182c0 114 88 197 223 197
c128 0 219 -83 219 -197c0 -116 -97 -197 -219 -197c-126 0 -223 81 -223 197zM645 182c0 -54 41 -93 92 -93c50 0 90 39 90 93s-39 91 -90 91c-54 0 -92 -37 -92 -91z" />
    <glyph glyph-name="perthousand" unicode="&#x2030;" horiz-adv-x="1469" 
d="M23 643c0 116 97 197 223 197c122 0 219 -81 219 -197c0 -114 -91 -197 -219 -197c-135 0 -223 83 -223 197zM791 825l-480 -825h-118l480 825h118zM152 643c0 -54 38 -91 92 -91c51 0 90 37 90 91s-40 93 -90 93c-51 0 -92 -39 -92 -93zM516 182c0 114 88 197 223 197
c128 0 219 -83 219 -197c0 -116 -97 -197 -219 -197c-126 0 -223 81 -223 197zM1004 182c0 114 88 197 223 197c128 0 219 -83 219 -197c0 -116 -97 -197 -219 -197c-126 0 -223 81 -223 197zM645 182c0 -54 41 -93 92 -93c50 0 90 39 90 93s-39 91 -90 91
c-54 0 -92 -37 -92 -91zM1133 182c0 -54 41 -93 92 -93c50 0 90 39 90 93s-39 91 -90 91c-54 0 -92 -37 -92 -91z" />
    <glyph glyph-name="plus" unicode="+" horiz-adv-x="633" 
d="M393 158h-153v180h-180v153h180v180h153v-180h180v-153h-180v-180z" />
    <glyph glyph-name="plusminus" unicode="&#xb1;" horiz-adv-x="633" 
d="M393 208h-153v155h-180v153h180v155h153v-155h180v-153h-180v-155zM60 153h513v-153h-513v153z" />
    <glyph glyph-name="ampersand" unicode="&#x26;" horiz-adv-x="833" 
d="M29 217c0 103 104 174 201 225c-48 60 -83 118 -83 183c0 128 92 215 263 215c165 0 245 -112 245 -215c0 -124 -163 -203 -163 -203l110 -114s36 16 121 104l116 -114s-56 -64 -117 -113l178 -185h-237l-82 85c-72 -51 -138 -100 -265 -100c-122 0 -287 49 -287 232z
M410 707c-51 0 -72 -38 -72 -82c0 -48 60 -101 60 -101c42 23 92 57 92 101s-19 82 -80 82zM459 210l-131 129s-86 -31 -86 -107c0 -48 49 -69 93 -69c68 0 124 47 124 47z" />
    <glyph glyph-name="asciicircum" unicode="^" horiz-adv-x="496" 
d="M340 605l-92 109l-92 -109h-161l207 235h92l207 -235h-161z" />
    <glyph glyph-name="at" unicode="@" horiz-adv-x="921" 
d="M718 344c43 0 62 24 62 98c0 157 -133 267 -307 267c-170 0 -304 -133 -304 -296s137 -286 304 -286c132 0 187 68 187 68l116 -77s-87 -133 -303 -133c-244 0 -450 174 -450 428s206 427 450 427c234 0 426 -162 426 -398c0 -156 -105 -219 -203 -219
c-54 0 -106 18 -139 46l-9 -13c-28 -31 -73 -54 -126 -54c-110 0 -189 89 -189 201c0 113 79 203 189 203c52 0 95 -18 126 -48v37h119v-209s3 -42 51 -42zM388 405c0 -46 33 -80 81 -80c45 0 79 34 79 80c0 47 -36 82 -79 82c-45 0 -81 -35 -81 -82z" />
    <glyph glyph-name="bar" unicode="|" horiz-adv-x="273" 
d="M60 0v860h153v-860h-153z" />
    <glyph glyph-name="brokenbar" unicode="&#xa6;" horiz-adv-x="273" 
d="M60 528v332h153v-332h-153zM60 0v332h153v-332h-153z" />
    <glyph glyph-name="copyright" unicode="&#xa9;" horiz-adv-x="901" 
d="M23 412c0 236 192 428 427 428c236 0 428 -192 428 -428c0 -235 -192 -427 -428 -427c-235 0 -427 192 -427 427zM137 412c0 -172 141 -313 313 -313c173 0 314 141 314 313c0 173 -141 314 -314 314c-172 0 -313 -141 -313 -314zM490 516c33 0 67 -16 67 -16l43 89
c-3 3 -46 35 -131 35c-113 0 -218 -94 -218 -211c0 -115 105 -207 218 -207c77 0 131 33 131 33c-15 32 -29 58 -44 90c-5 -3 -28 -16 -66 -16c-54 0 -98 44 -98 102c0 56 44 101 98 101z" />
    <glyph glyph-name="dagger" unicode="&#x2020;" horiz-adv-x="542" 
d="M70 650h124v210h153v-210h125v-136h-125v-514h-153v514h-124v136z" />
    <glyph glyph-name="daggerdbl" unicode="&#x2021;" horiz-adv-x="542" 
d="M70 366h124v128h-124v136h124v230h153v-230h125v-136h-125v-128h125v-136h-125v-230h-153v230h-124v136z" />
    <glyph glyph-name="degree" unicode="&#xb0;" horiz-adv-x="372" 
d="M70 772c0 61 51 103 116 103s116 -42 116 -103c0 -60 -48 -103 -116 -103c-69 0 -116 43 -116 103zM143 772c0 -25 17 -46 43 -46c25 0 44 21 44 46c0 26 -19 45 -44 45c-24 0 -43 -19 -43 -45z" />
    <glyph glyph-name="paragraph" unicode="&#xb6;" horiz-adv-x="708" 
d="M545 0v721h-61v-721h-103v306h-96c-161 0 -262 125 -262 265c0 141 101 254 262 254h363v-825h-103z" />
    <glyph glyph-name="registered" unicode="&#xae;" horiz-adv-x="494" 
d="M23 615c0 124 101 225 223 225c125 0 225 -101 225 -225c0 -123 -100 -223 -225 -223c-122 0 -223 100 -223 223zM83 615c0 -90 74 -163 163 -163c92 0 165 73 165 163c0 91 -73 165 -165 165c-89 0 -163 -74 -163 -165zM178 720h73c39 0 68 -21 68 -61
c0 -32 -17 -51 -42 -60l73 -86h-62l-63 82v-82h-47v207zM225 628h6c17 0 37 2 37 27c0 26 -20 28 -37 28h-6v-55z" />
    <glyph glyph-name="section" unicode="&#xa7;" horiz-adv-x="640" 
d="M288 -275c-233 0 -265 191 -265 191l160 34s23 -77 105 -77c61 0 82 26 82 55c0 41 -63 70 -150 110c-121 57 -197 124 -197 238c4 75 51 143 134 180c-60 43 -89 93 -89 175c0 108 78 209 258 209c213 0 241 -179 241 -179l-160 -34s-5 65 -81 65c-42 0 -63 -24 -63 -55
c0 -40 65 -70 152 -110c121 -57 197 -124 197 -238c-4 -75 -51 -143 -134 -180c59 -44 89 -94 89 -175c0 -86 -59 -209 -279 -209zM299 378l-24 11c-42 -12 -85 -36 -88 -84c3 -49 72 -82 132 -110c6 -3 12 -5 17 -8l23 -11c43 11 86 35 89 84c-3 49 -72 82 -132 110
c-6 3 -12 5 -17 8z" />
    <glyph glyph-name="trademark" unicode="&#x2122;" horiz-adv-x="514" 
d="M200 825v-52h-61v-206h-61v206h-61v52h183zM436 567l-12 153h-1l-53 -151h-35l-53 151h-1l-13 -153h-59l23 258h63l57 -148l57 148h63l24 -258h-60z" />
    <glyph glyph-name="acute" unicode="&#xb4;" horiz-adv-x="566" 
d="M136 664l203 176l91 -115l-238 -138z" />
    <glyph glyph-name="breve" unicode="&#x2d8;" horiz-adv-x="602" 
d="M406 840l126 -31c-12 -107 -102 -181 -231 -181s-219 74 -231 181l126 31s11 -103 105 -103s105 103 105 103z" />
    <glyph glyph-name="caron" unicode="&#x2c7;" horiz-adv-x="582" 
d="M138 840l153 -112l153 112l68 -91l-221 -162l-221 162z" />
    <glyph glyph-name="cedilla" unicode="&#xb8;" horiz-adv-x="446" 
d="M269 4l-22 -67c55 0 129 -33 129 -102c0 -63 -41 -129 -152 -129c-90 0 -154 83 -154 83l72 54s36 -47 82 -47c37 0 50 20 50 39c0 31 -34 45 -62 45c-36 0 -51 -9 -51 -9l-10 8l48 147z" />
    <glyph glyph-name="circumflex" unicode="&#x2c6;" horiz-adv-x="582" 
d="M70 678l221 162l221 -162l-68 -91l-153 112l-153 -112z" />
    <glyph glyph-name="dieresis" unicode="&#xa8;" horiz-adv-x="561" 
d="M162 791c51 0 92 -41 92 -92s-41 -92 -92 -92s-92 41 -92 92s41 92 92 92zM399 791c51 0 92 -41 92 -92s-41 -92 -92 -92s-92 41 -92 92s41 92 92 92z" />
    <glyph glyph-name="dotaccent" unicode="&#x2d9;" horiz-adv-x="324" 
d="M162 791c51 0 92 -41 92 -92s-41 -92 -92 -92s-92 41 -92 92s41 92 92 92z" />
    <glyph glyph-name="grave" unicode="`" horiz-adv-x="388" 
d="M138 840l203 -176l-56 -77l-238 138z" />
    <glyph glyph-name="hungarumlaut" unicode="&#x2dd;" horiz-adv-x="606" 
d="M96 664l173 196l82 -104l-199 -169zM307 664l173 196l82 -104l-199 -169z" />
    <glyph glyph-name="macron" unicode="&#xaf;" horiz-adv-x="548" 
d="M70 754h408v-120h-408v120z" />
    <glyph glyph-name="ogonek" unicode="&#x2db;" horiz-adv-x="403" 
d="M70 -158c0 79 104 184 104 184l58 -26s-59 -70 -59 -140c0 -25 20 -39 37 -39c31 0 51 30 51 30l72 -54s-45 -72 -137 -72c-52 0 -126 30 -126 117z" />
    <glyph glyph-name="ring" unicode="&#x2da;" horiz-adv-x="462" 
d="M70 733c0 83 71 142 161 142c91 0 161 -59 161 -142c0 -84 -67 -143 -161 -143c-96 0 -161 59 -161 143zM170 733c0 -35 25 -64 61 -64c35 0 61 29 61 64c0 34 -27 62 -61 62c-33 0 -61 -28 -61 -62z" />
    <glyph glyph-name="tilde" unicode="&#x2dc;" horiz-adv-x="602" 
d="M292 642c0 0 -40 19 -76 19c-32 0 -45 -46 -45 -46h-101s26 172 136 172c39 0 104 -27 104 -27s40 -19 76 -19c32 0 45 46 45 46h101s-26 -172 -136 -172c-39 0 -104 27 -104 27z" />
    </font>
</defs>
</svg>
